Поиск

2018 Dwiki Dharmawan - Rumah Batu {Moonjune} [24-88,2]

2018 Dwiki Dharmawan - Rumah Batu {Moonjune} [24-88,2]
Стили:
Издатель (лейбл):
Треклист:

Формат записи/Источник записи: [TR24][OF]
Наличие водяных знаков: Нет
Год издания/переиздания диска: 2018
Продолжительность: 01:18:18
Наличие сканов в содержимом раздачи: Буклет PDF
Контейнер: FLAC (*.flac)
Тип рипа: tracks
Разрядность: 24/88,2
Формат: PCM
Количество каналов: 2.0
Источник: bandcamp.com

Треклист:
01. Rintak Rebana (10:39)
02. Paris Barantai (11:44)
03. Impenan (8:20)
04. Janger (5:59)
05. Rumah Batu Suite, Part 1 - Kaili (12:24)
06. Rumah Batu Suite, Part 2 - Perjalanan (14:14)
07. Samarkand (7:40)
08. Salamatkan Orang Utan (7:16)

 
Лог проверки качества
foobar2000 1.3.9 / Dynamic Range Meter 1.1.1
log date: 2018-07-11 12:44:58
--------------------------------------------------------------------------------
Analyzed: Dwiki Dharmawan / Rumah Batu
--------------------------------------------------------------------------------
DR         Peak         RMS     Duration Track
--------------------------------------------------------------------------------
DR12      -0.51 dB   -14.24 dB     10:39 01-Rintak Rebana
DR9       -0.51 dB   -12.42 dB     11:44 02-Paris Barantai
DR11      -0.51 dB   -14.61 dB      8:20 03-Impenan
DR10      -0.51 dB   -14.74 dB      5:59 04-Janger
DR17      -0.80 dB   -21.10 dB     12:24 05-Rumah Batu Suite, Part 1 - Kaili
DR14      -0.51 dB   -19.84 dB     14:14 06-Rumah Batu Suite, Part 2 - Perjalanan
DR10      -0.51 dB   -11.76 dB      7:40 07-Samarkand
DR11      -0.51 dB   -13.41 dB      7:16 08-Salamatkan Orang Utan
--------------------------------------------------------------------------------
Number of tracks:  8
Official DR value: DR12
Samplerate:        88200 Hz
Channels:          2
Bits per sample:   24
Bitrate:           2813 kbps
Codec:             FLAC
================================================================================

 

Приватный:
Нет (DHT включён)
Размер:
1.45 Гб (1,553,171,866 байт) » файлов: 12
Участники:
0 раздают, 0 качают (0 участников всего)
Внешние участники:
3 раздают, 1 качают (4 участников всего) [ Обновить ]
Никого нет на раздаче - пишите личное сообщение M0p94ok
No seeders - write personal message to M0p94ok
19:47
782
Нет комментариев. Ваш будет первым!