Поиск

2018 Dr. Lonnie Smith - All In My Mind {Blue Note} [24-88,2]

2018 Dr. Lonnie Smith - All In My Mind {Blue Note} [24-88,2]
Стили:
Издатель (лейбл):

Состав:
  • Johnathan Blake Drums
  • Geoff Countryman Engineer
  • Joe Dyson Drums
  • Jonathan Kreisberg Associate Producer, Guitar
  • Tyler McDiarmid Engineer
  • Alicia Olatuja Vocals
  • Dr. Lonnie Smith Arranger, Composer, Keyboards, Organ, Vocals
  • Don Was Producer

Формат записи/Источник записи: [TR24][OF]
Наличие водяных знаков: Нет
Год издания/переиздания диска: 2018
Жанр: Jazz-Funk, Soul-Jazz, Hammond
Издатель (лейбл): Blue Note
Продолжительность: 56:37
Контейнер: FLAC (*.flac)
Тип рипа: tracks
Разрядность: 24/88,2
Формат: PCM
Количество каналов: 2.0
Наличие сканов в содержимом раздачи: Только обложка альбома
Источник: qobuz.com

Треклист:
01. JuJu (8:18)
02. Devika (6:56)
03. 50 Ways To Leave Your Lover (9:28)
04. On A Misty Night (7:45)
05. Alhambra (9:51)
06. All In My Mind (8:21)
07. Up Jumped Spring (5:58)

 
Лог проверки качества
foobar2000 1.3.9 / Dynamic Range Meter 1.1.1
log date: 2018-01-12 16:13:32
--------------------------------------------------------------------------------
Analyzed: Dr. Lonnie Smith / All In My Mind
--------------------------------------------------------------------------------
DR         Peak         RMS     Duration Track
--------------------------------------------------------------------------------
DR7       -0.20 dB    -9.25 dB      8:18 01-JuJu
DR8       -0.20 dB   -12.62 dB      6:56 02-Devika
DR8       -0.20 dB   -10.94 dB      9:28 03-50 Ways To Leave Your Lover
DR9       -0.20 dB   -14.53 dB      7:45 04-On A Misty Night
DR7       -0.20 dB   -11.21 dB      9:51 05-Alhambra
DR8       -0.20 dB   -13.28 dB      8:21 06-All In My Mind
DR7       -0.20 dB    -9.88 dB      5:58 07-Up Jumped Spring
--------------------------------------------------------------------------------
Number of tracks:  7
Official DR value: DR8
Samplerate:        88200 Hz
Channels:          2
Bits per sample:   24
Bitrate:           2886 kbps
Codec:             FLAC
================================================================================

 

Приватный:
Нет (DHT включён)
Размер:
1.08 Гб (1,159,143,204 байт) » файлов: 10
Участники:
0 раздают, 0 качают (0 участников всего)
Внешние участники:
--- [ Обновить ]
10:04
95
RSS
Нет комментариев. Ваш будет первым!