Вы используете незарегистрированную версию компонента "Вкладки"!

Поиск

2018 Dewa Budjana - Mahandini {MoonJune MJR097} [CD]

2018 Dewa Budjana - Mahandini {MoonJune MJR097} [CD]
Стили:
Битрейт аудио:
lossless
Доп. инфо:

Носитель: CD
Страна-производитель диска (релиза): US
Год издания: 2018
Издатель (лейбл): MoonJune Records
Номер по каталогу: MJR097
Страна исполнителя (группы): Indonesia
Аудиокодек: FLAC (*.flac)
Тип рипа: tracks+.cue
Битрейт аудио: lossless
Продолжительность: 48:26 min
Источник: собственный рип
Наличие сканов в содержимом раздачи:  [600dpi]

Лог создания рипа
Exact Audio Copy V1.0 beta 4 from 7. December 2014

EAC extraction logfile from 2. April 2019, 15:04

Dewa Budjana / Mahandini

Used drive  : ATAPI   iHAS124   E   Adapter: 1  ID: 0

Read mode               : Secure
Utilize accurate stream : Yes
Defeat audio cache      : Yes
Make use of C2 pointers : No

Read offset correction                      : 6
Overread into Lead-In and Lead-Out          : No
Fill up missing offset samples with silence : Yes
Delete leading and trailing silent blocks   : No
Null samples used in CRC calculations       : Yes
Used interface                              : Native Win32 interface for Win NT & 2000
Gap handling                                : Appended to previous track

Used output format              : User Defined Encoder
Selected bitrate                : 768 kBit/s
Quality                         : High
Add ID3 tag                     : No
Command line compressor         : C:\Program Files (x86)\flac-1.3.2-win\win64\flac.exe
Additional command line options : -8 -V -T "ARTIST=%artist%" -T "TITLE=%title%" -T "ALBUM=%albumtitle%" -T "DATE=%year%" -T "TRACKNUMBER=%tracknr%" -T "GENRE=%genre%" -T "COMMENT=ripped by vp_sunset" %source% -o %dest%

TOC of the extracted CD

     Track |   Start  |  Length  | Start sector | End sector
    ---------------------------------------------------------
        1  |  0:00.00 |  5:55.59 |         0    |    26683
        2  |  5:55.59 |  6:59.64 |     26684    |    58172
        3  | 12:55.48 |  7:44.48 |     58173    |    93020
        4  | 20:40.21 |  6:52.39 |     93021    |   123959
        5  | 27:32.60 |  6:39.30 |    123960    |   153914
        6  | 34:12.15 |  8:17.57 |    153915    |   191246
        7  | 42:29.72 |  5:56.18 |    191247    |   217964

Track  1

     Filename C:\_EAC\01. Crowded.wav

     Pre-gap length  0:00:02.00

     Peak level 91.1 %
     Extraction speed 2.1 X
     Track quality 100.0 %
     Test CRC 1FAAD75E
     Copy CRC 1FAAD75E
     Track not present in AccurateRip database
     Copy OK

Track  2

     Filename C:\_EAC\02. Queen Kanya.wav

     Peak level 91.1 %
     Extraction speed 2.5 X
     Track quality 100.0 %
     Test CRC 48A5A8C8
     Copy CRC 48A5A8C8
     Track not present in AccurateRip database
     Copy OK

Track  3

     Filename C:\_EAC\03. Hyang Giri.wav

     Peak level 91.1 %
     Extraction speed 2.8 X
     Track quality 100.0 %
     Test CRC 0A19EBC2
     Copy CRC 0A19EBC2
     Track not present in AccurateRip database
     Copy OK

Track  4

     Filename C:\_EAC\04. Jung Oman.wav

     Peak level 91.1 %
     Extraction speed 3.1 X
     Track quality 100.0 %
     Test CRC 979AB06D
     Copy CRC 979AB06D
     Track not present in AccurateRip database
     Copy OK

Track  5

     Filename C:\_EAC\05. ILW.wav

     Peak level 91.1 %
     Extraction speed 2.7 X
     Track quality 99.9 %
     Test CRC 948E160B
     Copy CRC 948E160B
     Track not present in AccurateRip database
     Copy OK

Track  6

     Filename C:\_EAC\06. Mahandini.wav

     Peak level 91.1 %
     Extraction speed 3.7 X
     Track quality 100.0 %
     Test CRC 41D629DA
     Copy CRC 41D629DA
     Track not present in AccurateRip database
     Copy OK

Track  7

     Filename C:\_EAC\07. Zone.wav

     Peak level 91.1 %
     Extraction speed 3.0 X
     Track quality 99.9 %
     Test CRC C97CA71E
     Copy CRC C97CA71E
     Track not present in AccurateRip database
     Copy OK

None of the tracks are present in the AccurateRip database

No errors occurred

End of status report

---- CUETools DB Plugin V2.1.4

[CTDB TOCID: BkiJr6Nfd.Ry3g6F4ad0VJbaZE4-] found
Submit result: BkiJr6Nfd.Ry3g6F4ad0VJbaZE4- has been confirmed
Track | CTDB Status
  1   | (2/2) Accurately ripped
  2   | (2/2) Accurately ripped
  3   | (2/2) Accurately ripped
  4   | (2/2) Accurately ripped
  5   | (2/2) Accurately ripped
  6   | (2/2) Accurately ripped
  7   | (2/2) Accurately ripped

==== Log checksum C16DC8ED9B5867062386CD111DFB72EF87EED3B52CD311D5B2D14B3BC843F0CF ====
Содержание индексной карты (.CUE)
REM GENRE "World Fusion"
REM DATE 2018
REM DISCID 570B5A07
REM COMMENT "ExactAudioCopy v1.0b4"
PERFORMER "Dewa Budjana"
TITLE "Mahandini"
FILE "01. Crowded.wav" WAVE
  TRACK 01 AUDIO
    TITLE "Crowded"
    PERFORMER "Dewa Budjana"
    INDEX 01 00:00:00
FILE "02. Queen Kanya.wav" WAVE
  TRACK 02 AUDIO
    TITLE "Queen Kanya"
    PERFORMER "Dewa Budjana"
    INDEX 01 00:00:00
FILE "03. Hyang Giri.wav" WAVE
  TRACK 03 AUDIO
    TITLE "Hyang Giri"
    PERFORMER "Dewa Budjana"
    INDEX 01 00:00:00
FILE "04. Jung Oman.wav" WAVE
  TRACK 04 AUDIO
    TITLE "Jung Oman"
    PERFORMER "Dewa Budjana"
    INDEX 01 00:00:00
FILE "05. ILW.wav" WAVE
  TRACK 05 AUDIO
    TITLE "ILW"
    PERFORMER "Dewa Budjana"
    INDEX 01 00:00:00
FILE "06. Mahandini.wav" WAVE
  TRACK 06 AUDIO
    TITLE "Mahandini"
    PERFORMER "Dewa Budjana"
    INDEX 01 00:00:00
FILE "07. Zone.wav" WAVE
  TRACK 07 AUDIO
    TITLE "Zone"
    PERFORMER "Dewa Budjana"
    INDEX 01 00:00:00
Лог проверки качества
-----------------------

DON'T MODIFY THIS FILE

-----------------------

PERFORMER: auCDtect Task Manager, ver. 1.6.0 RC1 build 1.6.0.1
Copyright (c) 2008-2010 y-soft. All rights reserved
http://y-soft.org

ANALYZER: auCDtect: CD records authenticity detector, version 0.8.2
Copyright (c) 2004 Oleg Berngardt. All rights reserved.
Copyright (c) 2004 Alexander Djourik. All rights reserved.

FILE: 01. Crowded.flac
  Size: 38249614 Hash: 001AD8662CDF8EFABE8B9B73E1F55437 Accuracy: -m0
  Conclusion: CDDA 100%
  Signature: 4F6025DC9B0F35173A12C63EC63ADC51A30522C8
FILE: 02. Queen Kanya.flac
  Size: 48233226 Hash: 897B6BA81A16339224CB58E1EA606AEF Accuracy: -m0
  Conclusion: CDDA 100%
  Signature: C441BE9E228FE9E25CB3976119A82CF671582521
FILE: 03. Hyang Giri.flac
  Size: 53510116 Hash: 5DA25650BB29B1B3FDDF61F59E36E9A9 Accuracy: -m0
  Conclusion: CDDA 62%
  Signature: 02E2C4D2EC2BF6D2A27488DEE24A69CDA6C6EC60
FILE: 04. Jung Oman.flac
  Size: 43689324 Hash: C00909613D7D857DB43838ED9DDCB516 Accuracy: -m0
  Conclusion: CDDA 85%
  Signature: 4E8CA509E376B6688008AB1665F696854D833062
FILE: 05. ILW.flac
  Size: 48137193 Hash: 7F682F9BF1CF91FA483B0768933FEF12 Accuracy: -m0
  Conclusion: CDDA 100%
  Signature: C26593DFAC675B1D09D97E7ADD0B2A47D8877CF4
FILE: 06. Mahandini.flac
  Size: 56433328 Hash: 77E0A101DA86C18EB5E0F3730652E917 Accuracy: -m0
  Conclusion: MPEG 95%
  Signature: D2699C3DA40B217E9717E416D8BE234737AC4D39
FILE: 07. Zone.flac
  Size: 41270431 Hash: E3718CED7B512874A3B67B7091E904ED Accuracy: -m0
  Conclusion: MPEG 85%
  Signature: A8DCFDBB5D3F3E20F28F93859A9FD06D38CCE06B
Any questions - support@pro-jazz.com. Есть вопросы - support@pro-jazz.com
23:42
170
Нет комментариев. Ваш будет первым!