Поиск

2018 Candi Staton - Unstoppable [WEB]

2018 Candi Staton - Unstoppable [WEB]
Треклист:
• Жанр: Soul | R&B | Pop
• Носитель: WEB
• Год издания: 2018
• Издатель (лейбл) Beracah Records, Inc.
• Страна исполнителя (группы):
• Аудиокодек: FLAC (*.flac)
• Тип рипа: tracks
• Продолжительность: 00:43:26
• Источник (спасибо): NBMus
• WEB релиз: qobuz
• Наличие сканов: front

◈ 01 - Confidence (00:04:41)
◈ 02 - I Fooled You Didn't I (00:03:49)
◈ 03 - Love is You (00:05:00)
◈ 04 - It Ain't Over (00:03:47)
◈ 05 - People Have the Power (00:03:57)
◈ 06 - Revolution of Change (00:05:58)
◈ 07 - Stand Up (00:04:25)
◈ 08 - (Whats so Funny 'Bout) Peace, Love, and Understanding (00:04:06)
◈ 09 - The Prize is Not Worth the Pain (00:04:13)
◈ 10 - Can I Change My Mind (00:03:25)
 

 
• Замер динамического диапазона •
foobar2000 1.3.9 / Замер динамического диапазона (DR) 1.1.1
Дата отчёта:  2018-08-24 11:09:40
--------------------------------------------------------------------------------
Анализ:   Candi Staton / Unstoppable
--------------------------------------------------------------------------------
DR         Пики         RMS           Продолжительность трека
--------------------------------------------------------------------------------
DR8       -0.11 дБ    -9.52 дБ      4:42 01-Confidence
DR6       -0.40 дБ    -7.44 дБ      3:50 02-I Fooled You Didn't I?
DR7       -0.35 дБ    -9.11 дБ      5:01 03-Love is You
DR7       -0.32 дБ    -9.30 дБ      3:47 04-It Ain't Over
DR6       -0.41 дБ    -7.49 дБ      3:57 05-People Have the Power
DR7       -0.38 дБ    -9.98 дБ      5:58 06-Revolution of Change
DR7       -0.36 дБ    -8.87 дБ      4:26 07-Stand Up
DR7       -0.31 дБ    -9.18 дБ      4:06 08-(Whats so Funny 'Bout) Peace, Love, and Understanding
DR8       -0.28 дБ    -9.70 дБ      4:14 09-The Prize is Not Worth the Pain
DR8       -0.30 дБ    -9.54 дБ      3:26 10-Can I Change My Mind
--------------------------------------------------------------------------------
Количество треков: 10
Реальные значения DR: DR7
Частота:   44100 Гц
Каналов:   2
Разрядность:   16
Битрейт:   943 кбит/с
Кодек:   FLAC
================================================================================

 
 
• Лог проверки качества •
-----------------------
DON'T MODIFY THIS FILE
-----------------------
PERFORMER: auCDtect Task Manager, ver. 1.5.1RC3 build 1.5.1.4
Copyright (c) 2008-2010 y-soft. All rights reserved
http://y-soft.org
ANALYZER: auCDtect: CD records authenticity detector, version 0.8.2
Copyright (c) 2004 Oleg Berngardt. All rights reserved.
Copyright (c) 2004 Alexander Djourik. All rights reserved.
FILE: 10 - Can I Change My Mind.flac
  Size: 24464913 Hash: 512CEBE490B9B975FD396749AF547BA9 Accuracy: -m0
  Conclusion: CDDA 100%
  Signature: CE32085CF78C7DB5D231E0DCB62C61E8F83872A0
FILE: 09 - The Prize is Not Worth the Pain.flac
  Size: 28764808 Hash: 36602929CEA29FF1A75BDBA0BE8AD9DB Accuracy: -m0
  Conclusion: CDDA 100%
  Signature: 8254863535C39B63094B6C4B53D9BC7DC77BED85
FILE: 08 - (Whats so Funny 'Bout) Peace, Love, and Understanding.flac
  Size: 28049677 Hash: C8E8F8874B8326239612C2BC2506852B Accuracy: -m0
  Conclusion: CDDA 100%
  Signature: C2C238F818AC6280CC53E893A93E20695FEC8FDD
FILE: 07 - Stand Up.flac
  Size: 29703212 Hash: 4E95A3EDD77C54F95103995E2278A46F Accuracy: -m0
  Conclusion: CDDA 100%
  Signature: F495F0EC048DB6D21940EB5ABE8A022DD679988E
FILE: 06 - Revolution of Change.flac
  Size: 39296202 Hash: 7EFDBDD381B3CB91B27A1FC06C642668 Accuracy: -m0
  Conclusion: CDDA 99%
  Signature: AF252A46FCC5A17064DF68F401B0AA9399AB3C7A
FILE: 05 - People Have the Power.flac
  Size: 27144659 Hash: 7389967013672E2591BEA96DA7121730 Accuracy: -m0
  Conclusion: CDDA 100%
  Signature: B192F8338E05AC3F6D2E10D7BBB816C24E086D76
FILE: 04 - It Ain't Over.flac
  Size: 25150452 Hash: 6F78591C86E8B49C988DDF55108767DA Accuracy: -m0
  Conclusion: CDDA 100%
  Signature: 2BE6833E48A0937589EA36EC9A6EBD1C1D831549
FILE: 03 - Love is You.flac
  Size: 31925467 Hash: 44E0E4BC1EB870FEB9E2A5B71EB54A45 Accuracy: -m0
  Conclusion: CDDA 99%
  Signature: 1BD03170B357FA5654D3FF76BEFFF94763B942A2
FILE: 02 - I Fooled You Didn't I.flac
  Size: 25668087 Hash: 466B411054834AD5B8970703951FA44E Accuracy: -m0
  Conclusion: CDDA 100%
  Signature: 6F0A8E9B0A9EFE41FF2D766234CFD1D94CF2B86D
FILE: 01 - Confidence.flac
  Size: 32844633 Hash: 2617ACFF01AFA60DDE404B338E7B3906 Accuracy: -m0
  Conclusion: CDDA 100%
  Signature: 10480EC6D8C04D107D8E43AB972A434551AA7DBA

Приватный:
Нет (DHT включён)
Размер:
279.67 Мб (293,253,303 байт) » файлов: 11
Участники:
0 раздают, 0 качают (0 участников всего)
Внешние участники:
3 раздают, 1 качают (4 участников всего) [ Обновить ]
Есть вопросы - пишите личное сообщение пользователю M0p94ok.
16:30
63
Нет комментариев. Ваш будет первым!