Поиск

2018 Brian Marsella Trio - Outspoken - The Music of the Legendary Hasaan {Tzadik TZ 4026} [CD]

2018 Brian Marsella Trio - Outspoken - The Music of the Legendary Hasaan {Tzadik TZ 4026} [CD]
Треклист:

01. Three-Four vs Six-Eight Four-Four Ways
02. Per Aspera Ad Astra
03. Pay Not Play Not
04. Almost Like Me
05. Off My Back Jack
06. A Jawn for Hasaan
07. Din-Ka Street
08. Hope So Elmo

Состав:
  • Brian Marsella - piano
  • Christian McBride - bass
  • Anwar Marshall - drums

Produced by John Zorn
Recorded and mixed May 25, 2018 at Second Story Sound, NYC by Jeff Cook
Mastered by Scott Hull

All music written and arranged by Hasaan Ibn Ali except "A Jawn for Hasaan" by Brian Marsella

Жанр: Bop, Hard Bop
Носитель: CD
Страна-производитель диска (релиза): US
Год издания: 2018
Издатель (лейбл): Tzadik
Номер по каталогу: TZ 4026
Страна исполнителя (группы): US
Аудиокодек: FLAC (*.flac)
Тип рипа: tracks+.cue
Битрейт аудио: lossless
Продолжительность: 01:00:31
Источник (релизер): domednest
Наличие сканов в содержимом раздачи: да

Лог создания рипа
Exact Audio Copy V1.3 from 2. September 2016

EAC extraction logfile from 8. January 2019, 10:29

Brian Marsella Trio / Outspoken – The Music of the Legendary Hasaan

Used drive  : hp      CDDVDW SN-208BB   Adapter: 1  ID: 0

Read mode               : Secure
Utilize accurate stream : Yes
Defeat audio cache      : Yes
Make use of C2 pointers : No

Read offset correction                      : 6
Overread into Lead-In and Lead-Out          : No
Fill up missing offset samples with silence : Yes
Delete leading and trailing silent blocks   : No
Null samples used in CRC calculations       : Yes
Used interface                              : Native Win32 interface for Win NT & 2000
Gap handling                                : Appended to previous track

Used output format              : User Defined Encoder
Selected bitrate                : 768 kBit/s
Quality                         : High
Add ID3 tag                     : No
Command line compressor         : C:\Program Files (x86)\Exact Audio Copy\Flac\flac.exe
Additional command line options : -8 -e -p -V -T "ARTIST=%artist%" -T "TITLE=%title%" -T "ALBUM=%albumtitle%" -T "DATE=%year%" -T "TRACKNUMBER=%tracknr%" -T "GENRE=%genre%" -T "PERFORMER=%albuminterpret%" -T "COMPOSER=%composer%" %haslyrics%--tag-from-file=LYRICS="%lyricsfile%"%haslyrics% -T "ALBUMARTIST=%albumartist%" -T "DISCNUMBER=%cdnumber%" -T "TOTALDISCS=%totalcds%" -T "TOTALTRACKS=%numtracks%" -T "COMMENT=%comment%" %source% -o %dest%

TOC of the extracted CD

     Track |   Start  |  Length  | Start sector | End sector
    ---------------------------------------------------------
        1  |  0:00.00 |  8:22.43 |         0    |    37692
        2  |  8:22.43 |  7:05.33 |     37693    |    69600
        3  | 15:28.01 |  7:48.38 |     69601    |   104738
        4  | 23:16.39 |  5:56.33 |    104739    |   131471
        5  | 29:12.72 |  7:43.03 |    131472    |   166199
        6  | 36:56.00 |  9:00.67 |    166200    |   206766
        7  | 45:56.67 |  8:50.30 |    206767    |   246546
        8  | 54:47.22 |  5:43.65 |    246547    |   272336

Track  1

     Filename E:\CDRip\Brian Marsella Trio - Outspoken - The Music of the Legendary Hasaan (2018) [FLAC]  {Tzadik TZ 4026}\01 - Three-Four vs Six-Eight Four-Four Ways.wav

     Pre-gap length  0:00:02.00

     Peak level 92.2 %
     Extraction speed 2.5 X
     Track quality 100.0 %
     Test CRC 93C7E75C
     Copy CRC 93C7E75C
     Track not present in AccurateRip database
     Copy OK

Track  2

     Filename E:\CDRip\Brian Marsella Trio - Outspoken - The Music of the Legendary Hasaan (2018) [FLAC]  {Tzadik TZ 4026}\02 - Per Aspera Ad Astra.wav

     Peak level 94.2 %
     Extraction speed 2.9 X
     Track quality 100.0 %
     Test CRC D4E3B6A0
     Copy CRC D4E3B6A0
     Track not present in AccurateRip database
     Copy OK

Track  3

     Filename E:\CDRip\Brian Marsella Trio - Outspoken - The Music of the Legendary Hasaan (2018) [FLAC]  {Tzadik TZ 4026}\03 - Pay Not Play Not.wav

     Peak level 92.1 %
     Extraction speed 3.3 X
     Track quality 100.0 %
     Test CRC D9BD0A82
     Copy CRC D9BD0A82
     Track not present in AccurateRip database
     Copy OK

Track  4

     Filename E:\CDRip\Brian Marsella Trio - Outspoken - The Music of the Legendary Hasaan (2018) [FLAC]  {Tzadik TZ 4026}\04 - Almost Like Me.wav

     Peak level 94.1 %
     Extraction speed 3.5 X
     Track quality 100.0 %
     Test CRC F6348B9A
     Copy CRC F6348B9A
     Track not present in AccurateRip database
     Copy OK

Track  5

     Filename E:\CDRip\Brian Marsella Trio - Outspoken - The Music of the Legendary Hasaan (2018) [FLAC]  {Tzadik TZ 4026}\05 - Off My Back Jack.wav

     Peak level 93.1 %
     Extraction speed 3.9 X
     Track quality 100.0 %
     Test CRC AAD99202
     Copy CRC AAD99202
     Track not present in AccurateRip database
     Copy OK

Track  6

     Filename E:\CDRip\Brian Marsella Trio - Outspoken - The Music of the Legendary Hasaan (2018) [FLAC]  {Tzadik TZ 4026}\06 - A Jawn for Hasaan.wav

     Peak level 93.0 %
     Extraction speed 4.2 X
     Track quality 100.0 %
     Test CRC 78E47EBA
     Copy CRC 78E47EBA
     Track not present in AccurateRip database
     Copy OK

Track  7

     Filename E:\CDRip\Brian Marsella Trio - Outspoken - The Music of the Legendary Hasaan (2018) [FLAC]  {Tzadik TZ 4026}\07 - Din-Ka Street.wav

     Peak level 93.7 %
     Extraction speed 4.5 X
     Track quality 100.0 %
     Test CRC 4CF09BDD
     Copy CRC 4CF09BDD
     Track not present in AccurateRip database
     Copy OK

Track  8

     Filename E:\CDRip\Brian Marsella Trio - Outspoken - The Music of the Legendary Hasaan (2018) [FLAC]  {Tzadik TZ 4026}\08 - Hope So Elmo.wav

     Peak level 89.4 %
     Extraction speed 4.6 X
     Track quality 100.0 %
     Test CRC 1B521BE9
     Copy CRC 1B521BE9
     Track not present in AccurateRip database
     Copy OK

None of the tracks are present in the AccurateRip database

No errors occurred

End of status report

---- CUETools DB Plugin V2.1.6

[CTDB TOCID: 8zUe8OHQZnRR0y_6ed6oF9mCgpw-] found
Submit result: already submitted
Track | CTDB Status
  1   | (3/3) Accurately ripped
  2   | (3/3) Accurately ripped
  3   | (3/3) Accurately ripped
  4   | (3/3) Accurately ripped
  5   | (3/3) Accurately ripped
  6   | (3/3) Accurately ripped
  7   | (3/3) Accurately ripped
  8   | (3/3) Accurately ripped

==== Log checksum 8D4A0FA1E7CD42716842C0DC136A0038B2C689E9D43605AF2BFC635A2F3F67D6 ====
Содержание индексной карты (.CUE)
REM GENRE Jazz
REM DATE 2018
REM DISCID 760E2F08
REM COMMENT "ExactAudioCopy v1.3"
PERFORMER "Brian Marsella Trio"
TITLE "Outspoken – The Music of the Legendary Hasaan"
REM COMPOSER ""
FILE "01 - Three-Four vs Six-Eight Four-Four Ways.wav" WAVE
  TRACK 01 AUDIO
    TITLE "Three-Four vs Six-Eight Four-Four Ways"
    PERFORMER "Brian Marsella Trio"
    REM COMPOSER ""
    FLAGS DCP
    INDEX 01 00:00:00
FILE "02 - Per Aspera Ad Astra.wav" WAVE
  TRACK 02 AUDIO
    TITLE "Per Aspera Ad Astra"
    PERFORMER "Brian Marsella Trio"
    REM COMPOSER ""
    FLAGS DCP
    INDEX 01 00:00:00
FILE "03 - Pay Not Play Not.wav" WAVE
  TRACK 03 AUDIO
    TITLE "Pay Not Play Not"
    PERFORMER "Brian Marsella Trio"
    REM COMPOSER ""
    FLAGS DCP
    INDEX 01 00:00:00
FILE "04 - Almost Like Me.wav" WAVE
  TRACK 04 AUDIO
    TITLE "Almost Like Me"
    PERFORMER "Brian Marsella Trio"
    REM COMPOSER ""
    FLAGS DCP
    INDEX 01 00:00:00
FILE "05 - Off My Back Jack.wav" WAVE
  TRACK 05 AUDIO
    TITLE "Off My Back Jack"
    PERFORMER "Brian Marsella Trio"
    REM COMPOSER ""
    FLAGS DCP
    INDEX 01 00:00:00
FILE "06 - A Jawn for Hasaan.wav" WAVE
  TRACK 06 AUDIO
    TITLE "A Jawn for Hasaan"
    PERFORMER "Brian Marsella Trio"
    REM COMPOSER ""
    FLAGS DCP
    INDEX 01 00:00:00
FILE "07 - Din-Ka Street.wav" WAVE
  TRACK 07 AUDIO
    TITLE "Din-Ka Street"
    PERFORMER "Brian Marsella Trio"
    REM COMPOSER ""
    FLAGS DCP
    INDEX 01 00:00:00
FILE "08 - Hope So Elmo.wav" WAVE
  TRACK 08 AUDIO
    TITLE "Hope So Elmo"
    PERFORMER "Brian Marsella Trio"
    REM COMPOSER ""
    FLAGS DCP
    INDEX 01 00:00:00
По всем вопросам пишите личное сообщение пользователю M0p94ok.
18:03
405
Нет комментариев. Ваш будет первым!