Вы используете незарегистрированную версию компонента "Вкладки"!

Поиск

2018 Arve Henriksen - The Height of the Reeds {Rune Grammofon} [24-44,1]

2018 Arve Henriksen - The Height of the Reeds {Rune Grammofon} [24-44,1]
Битрейт аудио:
lossless
Доп. инфо:

Формат записи/Источник записи: [TR24][OF]
Наличие водяных знаков: Нет
Год издания/переиздания диска: 2018
Издатель (лейбл): Rune Grammofon
Продолжительность: 00:42:30
Наличие сканов в содержимом раздачи: Только обложка альбома
Источник (релизер): qobuz

Контейнер: FLAC (*.flac)
Тип рипа: tracks
Разрядность: 24/44,1
Формат: PCM
Количество каналов: 2.0

Лог проверки качества
foobar2000 1.1.15 / Dynamic Range Meter 1.1.1
log date: 2020-06-11 16:56:11

--------------------------------------------------------------------------------
Analyzed: Arve Henriksen / The Height of the Reeds
--------------------------------------------------------------------------------

DR         Peak         RMS     Duration Track
--------------------------------------------------------------------------------
DR10      -2.19 dB   -19.45 dB      1:52 01-Come April
DR12      -0.31 dB   -16.55 dB      8:59 02-Reefs and Roots
DR11      -1.72 dB   -18.11 dB      6:07 03-The Swans Bend Their Necks Backward to See God
DR12      -0.31 dB   -18.64 dB      4:23 04-Height of the Reeds in the Wetlands
DR13      -0.31 dB   -18.89 dB      6:54 05-Is There a Limit for the Internal?
DR9       -2.46 dB   -17.70 dB      2:34 06-Nymphs and Eurasian Horses
DR11      -2.47 dB   -18.45 dB      4:02 07-Waders
DR10     -10.79 dB   -24.16 dB      2:30 08-The Wind in the Willows
DR11      -0.31 dB   -14.80 dB      5:09 09-Pink Cherry Trees
--------------------------------------------------------------------------------

Number of tracks:  9
Official DR value: DR11

Samplerate:        44100 Hz
Channels:          2
Bits per sample:   24
Bitrate:           1321 kbps
Codec:             FLAC
================================================================================
Any questions - support@pro-jazz.com. Есть вопросы - support@pro-jazz.com
20:07
239
Нет комментариев. Ваш будет первым!