Поиск

2018 Andrew Cyrille, Wadada Leo Smith, Bill Frisell - Lebroba [24-88,2]

2018 Andrew Cyrille, Wadada Leo Smith, Bill Frisell - Lebroba [24-88,2]
Издатель (лейбл):
Лог проверки качества
foobar2000 1.4 / Dynamic Range Meter 1.1.1
log date: 2018-11-02 16:42:41

--------------------------------------------------------------------------------
Analyzed: Andrew Cyrille / Lebroba
--------------------------------------------------------------------------------

DR         Peak         RMS     Duration Track
--------------------------------------------------------------------------------
DR16      -0.71 dB   -20.51 dB      7:36 01-Worried Woman
DR18      -0.70 dB   -23.05 dB     17:25 02-Turiya:Alice Coltrane Meditations and Dreams:Love
DR19      -0.77 dB   -26.37 dB      5:44 03-Lebroba
DR16      -0.70 dB   -20.51 dB      5:17 04-TGD
DR14      -9.60 dB   -28.85 dB      6:25 05-Pretty Beauty
--------------------------------------------------------------------------------

Number of tracks:  5
Official DR value: DR17
Samplerate:        88200 Hz
Channels:          2
Bits per sample:   24
Bitrate:           2338 kbps
Codec:             FLAC
================================================================================
No seeders - write personal message to M0p94ok. Any questions - support@pro-jazz.com.
Нет сидеров - пишите в личку M0p94ok. Есть вопросы - support@pro-jazz.com
08:15
335
Нет комментариев. Ваш будет первым!