Поиск

2018 Alex Skolnick Trio – Conundrum {Palmetto} [CD]

2018 Alex Skolnick Trio – Conundrum {Palmetto} [CD]
Битрейт аудио:
lossless
Лог создания рипа
Exact Audio Copy V1.3 from 2. September 2016

EAC extraction logfile from 28. December 2018, 18:23

Alex Skolnick Trio / Conundrum

Used drive  : TSSTcorpCDDVDW SH-224DB   Adapter: 1  ID: 0

Read mode               : Secure
Utilize accurate stream : Yes
Defeat audio cache      : Yes
Make use of C2 pointers : No

Read offset correction                      : 6
Overread into Lead-In and Lead-Out          : No
Fill up missing offset samples with silence : Yes
Delete leading and trailing silent blocks   : No
Null samples used in CRC calculations       : Yes
Used interface                              : Native Win32 interface for Win NT & 2000
Gap handling                                : Appended to previous track

Used output format              : User Defined Encoder
Selected bitrate                : 1024 kBit/s
Quality                         : High
Add ID3 tag                     : No
Command line compressor         : C:\Program Files (x86)\Exact Audio Copy\win64\flac.exe
Additional command line options : -8 -V -T "ARTIST=%artist%" -T "TITLE=%title%" -T "ALBUM=%albumtitle%" -T "DATE=%year%" -T "TRACKNUMBER=%tracknr%" -T "GENRE=%genre%" -T "COMMENT=%comment%" %source% -o %dest%

TOC of the extracted CD

     Track |   Start  |  Length  | Start sector | End sector
    ---------------------------------------------------------
        1  |  0:00.00 |  6:25.37 |         0    |    28911
        2  |  6:25.37 |  4:46.25 |     28912    |    50386
        3  | 11:11.62 |  8:19.70 |     50387    |    87881
        4  | 19:31.57 |  5:33.13 |     87882    |   112869
        5  | 25:04.70 |  6:10.32 |    112870    |   140651
        6  | 31:15.27 |  7:48.72 |    140652    |   175823
        7  | 39:04.24 |  5:33.27 |    175824    |   200825
        8  | 44:37.51 |  5:02.28 |    200826    |   223503
        9  | 49:40.04 |  4:59.34 |    223504    |   245962

Track  1

     Filename F:\Sket4er\Alex Skolnick Trio – Conundrum  2018\01 Unbund.wav

     Pre-gap length  0:00:02.00

     Peak level 100.0 %
     Extraction speed 2.1 X
     Track quality 100.0 %
     Test CRC 88670505
     Copy CRC 88670505
     Track not present in AccurateRip database
     Copy OK

Track  2

     Filename F:\Sket4er\Alex Skolnick Trio – Conundrum  2018\02 Django Tango.wav

     Peak level 100.0 %
     Extraction speed 2.3 X
     Track quality 100.0 %
     Test CRC F4EEC562
     Copy CRC F4EEC562
     Track not present in AccurateRip database
     Copy OK

Track  3

     Filename F:\Sket4er\Alex Skolnick Trio – Conundrum  2018\03 Conundrum.wav

     Peak level 100.0 %
     Extraction speed 2.7 X
     Track quality 100.0 %
     Test CRC 4E8200AC
     Copy CRC 4E8200AC
     Track not present in AccurateRip database
     Copy OK

Track  4

     Filename F:\Sket4er\Alex Skolnick Trio – Conundrum  2018\04 Gymnopedie No. 1.wav

     Peak level 99.4 %
     Extraction speed 2.8 X
     Track quality 100.0 %
     Test CRC 7FC4D13E
     Copy CRC 7FC4D13E
     Track not present in AccurateRip database
     Copy OK

Track  5

     Filename F:\Sket4er\Alex Skolnick Trio – Conundrum  2018\05 Culture Shock.wav

     Peak level 100.0 %
     Extraction speed 3.0 X
     Track quality 100.0 %
     Test CRC 5D0EB1F5
     Copy CRC 5D0EB1F5
     Track not present in AccurateRip database
     Copy OK

Track  6

     Filename F:\Sket4er\Alex Skolnick Trio – Conundrum  2018\06 Dodge The Bambula.wav

     Peak level 100.0 %
     Extraction speed 3.3 X
     Track quality 100.0 %
     Test CRC 2F3AB40C
     Copy CRC 2F3AB40C
     Track not present in AccurateRip database
     Copy OK

Track  7

     Filename F:\Sket4er\Alex Skolnick Trio – Conundrum  2018\07 Key Of Sea.wav

     Peak level 100.0 %
     Extraction speed 3.4 X
     Track quality 100.0 %
     Test CRC 85B422DD
     Copy CRC 85B422DD
     Track not present in AccurateRip database
     Copy OK

Track  8

     Filename F:\Sket4er\Alex Skolnick Trio – Conundrum  2018\08 A Question Of Moral Ambiguity.wav

     Peak level 100.0 %
     Extraction speed 3.5 X
     Track quality 100.0 %
     Test CRC 51D25D8B
     Copy CRC 51D25D8B
     Track not present in AccurateRip database
     Copy OK

Track  9

     Filename F:\Sket4er\Alex Skolnick Trio – Conundrum  2018\09 Protect The Dream.wav

     Peak level 100.0 %
     Extraction speed 2.9 X
     Track quality 99.9 %
     Test CRC 61C9F2FE
     Copy CRC 61C9F2FE
     Track not present in AccurateRip database
     Copy OK

None of the tracks are present in the AccurateRip database

No errors occurred

End of status report

---- CUETools DB Plugin V2.1.6

[CTDB TOCID: YynTiAb41plmiNw5bCTtv_Lb.c4-] found
Submit result: YynTiAb41plmiNw5bCTtv_Lb.c4- has been confirmed
Track | CTDB Status
  1   | (8/8) Accurately ripped
  2   | (8/8) Accurately ripped
  3   | (8/8) Accurately ripped
  4   | (8/8) Accurately ripped
  5   | (8/8) Accurately ripped
  6   | (8/8) Accurately ripped
  7   | (8/8) Accurately ripped
  8   | (8/8) Accurately ripped
  9   | (8/8) Accurately ripped

==== Log checksum 168FF9E14C7412C916333F58C9FCA2D1CA292E556954C526CAA0603FD3712945 ====
Содержание индексной карты (.CUE)
REM GENRE Jazz
REM DATE 2018
REM DISCID 8F0CCF09
REM COMMENT "ExactAudioCopy v1.3"
PERFORMER "Alex Skolnick Trio"
TITLE "Conundrum"
REM COMPOSER ""
FILE "01 Unbund.wav" WAVE
  TRACK 01 AUDIO
    TITLE "Unbund"
    PERFORMER "Alex Skolnick Trio"
    REM COMPOSER ""
    INDEX 01 00:00:00
FILE "02 Django Tango.wav" WAVE
  TRACK 02 AUDIO
    TITLE "Django Tango"
    PERFORMER "Alex Skolnick Trio"
    REM COMPOSER ""
    INDEX 01 00:00:00
FILE "03 Conundrum.wav" WAVE
  TRACK 03 AUDIO
    TITLE "Conundrum"
    PERFORMER "Alex Skolnick Trio"
    REM COMPOSER ""
    INDEX 01 00:00:00
FILE "04 Gymnopedie No. 1.wav" WAVE
  TRACK 04 AUDIO
    TITLE "Gymnopedie No. 1"
    PERFORMER "Alex Skolnick Trio"
    REM COMPOSER ""
    INDEX 01 00:00:00
FILE "05 Culture Shock.wav" WAVE
  TRACK 05 AUDIO
    TITLE "Culture Shock"
    PERFORMER "Alex Skolnick Trio"
    REM COMPOSER ""
    INDEX 01 00:00:00
FILE "06 Dodge The Bambula.wav" WAVE
  TRACK 06 AUDIO
    TITLE "Dodge The Bambula"
    PERFORMER "Alex Skolnick Trio"
    REM COMPOSER ""
    INDEX 01 00:00:00
FILE "07 Key Of Sea.wav" WAVE
  TRACK 07 AUDIO
    TITLE "Key Of Sea"
    PERFORMER "Alex Skolnick Trio"
    REM COMPOSER ""
    INDEX 01 00:00:00
FILE "08 A Question Of Moral Ambiguity.wav" WAVE
  TRACK 08 AUDIO
    TITLE "A Question Of Moral Ambiguity"
    PERFORMER "Alex Skolnick Trio"
    REM COMPOSER ""
    INDEX 01 00:00:00
FILE "09 Protect The Dream.wav" WAVE
  TRACK 09 AUDIO
    TITLE "Protect The Dream"
    PERFORMER "Alex Skolnick Trio"
    REM COMPOSER ""
    INDEX 01 00:00:00
Лог проверки качества
-----------------------

DON'T MODIFY THIS FILE

-----------------------

PERFORMER: auCDtect Task Manager, ver. 1.5.1RC4 build 1.5.1.5
Copyright (c) 2008-2010 y-soft. All rights reserved
http://y-soft.org

ANALYZER: auCDtect: CD records authenticity detector, version 0.8.2
Copyright (c) 2004 Oleg Berngardt. All rights reserved.
Copyright (c) 2004 Alexander Djourik. All rights reserved.

FILE: 09 Protect The Dream.flac
  Size: 33393335 Hash: 653D54142C095D0F7542034227319D33 Accuracy: -m0
  Conclusion: MPEG 89%
  Signature: 6304F2F2F4EE884FC87B0DDEEF63C07455B304E1

FILE: 08 A Question Of Moral Ambiguity.flac
  Size: 34411892 Hash: 1F1AD218867B9400B68E8B4606C17077 Accuracy: -m0
  Conclusion: CDDA 76%
  Signature: 72FC39C6FEE1D422E4CA836366B4081D2734373A
FILE: 07 Key Of Sea.flac
  Size: 32030963 Hash: 322CC17214E89AD5694931311BF61A87 Accuracy: -m0
  Conclusion: CDDA 100%
  Signature: 3CD3ADF31C27E3F23139B953F34BDF1C9B5AB07A
FILE: 06 Dodge The Bambula.flac
  Size: 52455056 Hash: 289F9698EC1EF1F5AA2EA835391F06D8 Accuracy: -m0
  Conclusion: CDDA 54%
  Signature: DEABEB7FB2CF7D1E9C29B7673E8DFF7BBB417A03
FILE: 05 Culture Shock.flac
  Size: 43339874 Hash: 3F12FB4D116920518F7E157C1FCE451D Accuracy: -m0
  Conclusion: CDDA 43%
  Signature: 2FE18DE9BE4AA5B1F9A36274F5BE6B2F413164E6
FILE: 04 Gymnopedie No. 1.flac
  Size: 33671624 Hash: D5A62C4CC948C71A06495380F46B0D08 Accuracy: -m0
  Conclusion: CDDA 86%
  Signature: 0268F5B4DA63E379EDEDC11FECF77C2D2FE8611B
FILE: 03 Conundrum.flac
  Size: 54307421 Hash: 65C4D10C897AD0201AC768DB14765995 Accuracy: -m0
  Conclusion: CDDA 76%
  Signature: 825CCE0555D7E23BB116A21FC4E38C6629F72C39
FILE: 02 Django Tango.flac
  Size: 27772906 Hash: 761BA797241FE2AB94FC70883E18AEB4 Accuracy: -m0
  Conclusion: CDDA 100%
  Signature: E6762760EB191FDFE5EBEA0694FCB6D0554F1BBF
FILE: 01 Unbund.flac
  Size: 46064921 Hash: DA6BA7A32BA733A631B17C6C366CBE38 Accuracy: -m0
  Conclusion: CDDA 62%
  Signature: 7E2BB52729762C6D60B4D212820A6049BE0192F1
Скриншот спектра частот
2018 Alex Skolnick Trio – Conundrum {Palmetto} [CD] 0
No seeders - write personal message to M0p94ok. Any questions - support@pro-jazz.com.
Нет сидеров - пишите в личку M0p94ok. Есть вопросы - support@pro-jazz.com
16:11
277
Нет комментариев. Ваш будет первым!