Поиск

2018 Al Di Meola - Opus {Ear Music 0212371EMU}

2018 Al Di Meola - Opus {Ear Music 0212371EMU}
Дата издания диска:
2018
Номер по каталогу:
0212371EMU
Носитель:
CD
Битрейт аудио:
lossless
Аудиокодек:
FLAC (*.flac)
Тип рипа:
tracks+.cue
Время звучания:
58:28
Наличие сканов:
  • нет
Релизёр (источник):
Apollo

01. Milonga Noctiva (7:56)
02. Broken Heart (5:24)
03. Ava's Dream Sequence Lullaby (10:03)
04. Cerreto Sannita (5:43)
05. Notorious (5:05)
06. Frozen in Time (3:24)
07. Escapado (4:03)
08. Pomp (1:42)
09. Left Unsaid (4:21)
10. Insieme (5:45)
11. Rebels (5:03)

Лог создания рипа
X Lossless Decoder version 20170729 (150.3)

XLD extraction logfile from 2018-03-03 20:37:30 +0100

Al di Meola / Opus

Used drive : ASUS SDRW-08D2S-U (revision A801)
Media type : Pressed CD

Ripper mode             : XLD Secure Ripper
Disable audio cache     : OK for the drive with a cache less than 1375KiB
Make use of C2 pointers : NO
Read offset correction  : 6
Max retry count         : 100
Gap status              : Analyzed, Appended (except HTOA)

TOC of the extracted CD
     Track |   Start  |  Length  | Start sector | End sector
    ---------------------------------------------------------
        1  | 00:00:00 | 07:56:11 |         0    |    35710
        2  | 07:56:11 | 05:23:60 |     35711    |    59995
        3  | 13:19:71 | 10:02:54 |     59996    |   105199
        4  | 23:22:50 | 05:42:58 |    105200    |   130907
        5  | 29:05:33 | 05:04:61 |    130908    |   153768
        6  | 34:10:19 | 03:24:05 |    153769    |   169073
        7  | 37:34:24 | 04:02:67 |    169074    |   187290
        8  | 41:37:16 | 01:41:49 |    187291    |   194914
        9  | 43:18:65 | 04:20:74 |    194915    |   214488
       10  | 47:39:64 | 05:45:10 |    214489    |   240373
       11  | 53:24:74 | 05:03:01 |    240374    |   263099

AccurateRip Summary
    Disc not found in AccurateRip DB.

All Tracks
    Album gain               : -9.46 dB
    Peak                     : 0.999481
    Statistics
        Read error                           : 0
        Jitter error (maybe fixed)           : 0
        Retry sector count                   : 0
        Damaged sector count                 : 0

Track 01
    Filename : /Users/pat/Desktop/Al di Meola - Opus (2018) [FLAC]/01 Milonga Noctiva.flac
    Pre-gap length : 00:02:00

    Track gain               : -9.86 dB
    Peak                     : 0.999481
    CRC32 hash (test run)    : AD9D32A4
    CRC32 hash               : AD9D32A4
    CRC32 hash (skip zero)   : BEB741FD
    AccurateRip v1 signature : 7AEE30E9
    AccurateRip v2 signature : 7BE9A067
        ->Track not present in AccurateRip database.
    Statistics
        Read error                           : 0
        Jitter error (maybe fixed)           : 0
        Retry sector count                   : 0
        Damaged sector count                 : 0

Track 02
    Filename : /Users/pat/Desktop/Al di Meola - Opus (2018) [FLAC]/02 Broken Heart.flac

    Track gain               : -9.07 dB
    Peak                     : 0.999451
    CRC32 hash (test run)    : 462EAC72
    CRC32 hash               : 462EAC72
    CRC32 hash (skip zero)   : 57702437
    AccurateRip v1 signature : 2C33A445
    AccurateRip v2 signature : FEC89E85
        ->Track not present in AccurateRip database.
    Statistics
        Read error                           : 0
        Jitter error (maybe fixed)           : 0
        Retry sector count                   : 0
        Damaged sector count                 : 0

Track 03
    Filename : /Users/pat/Desktop/Al di Meola - Opus (2018) [FLAC]/03 Ava's Dream Sequence Lullaby.flac

    Track gain               : -10.04 dB
    Peak                     : 0.999481
    CRC32 hash (test run)    : 13369F1B
    CRC32 hash               : 13369F1B
    CRC32 hash (skip zero)   : D22B5900
    AccurateRip v1 signature : BC5752CB
    AccurateRip v2 signature : 2E227680
        ->Track not present in AccurateRip database.
    Statistics
        Read error                           : 0
        Jitter error (maybe fixed)           : 0
        Retry sector count                   : 0
        Damaged sector count                 : 0

Track 04
    Filename : /Users/pat/Desktop/Al di Meola - Opus (2018) [FLAC]/04 Cerreto Sannita.flac

    Track gain               : -9.91 dB
    Peak                     : 0.999420
    CRC32 hash (test run)    : 0A4B866F
    CRC32 hash               : 0A4B866F
    CRC32 hash (skip zero)   : 41BFB102
    AccurateRip v1 signature : E14AB827
    AccurateRip v2 signature : 57EB06A6
        ->Track not present in AccurateRip database.
    Statistics
        Read error                           : 0
        Jitter error (maybe fixed)           : 0
        Retry sector count                   : 0
        Damaged sector count                 : 0

Track 05
    Filename : /Users/pat/Desktop/Al di Meola - Opus (2018) [FLAC]/05 Notorious.flac

    Track gain               : -8.67 dB
    Peak                     : 0.999420
    CRC32 hash (test run)    : 28AC58F4
    CRC32 hash               : 28AC58F4
    CRC32 hash (skip zero)   : 882E1268
    AccurateRip v1 signature : 6B9A990B
    AccurateRip v2 signature : C5672841
        ->Track not present in AccurateRip database.
    Statistics
        Read error                           : 0
        Jitter error (maybe fixed)           : 0
        Retry sector count                   : 0
        Damaged sector count                 : 0

Track 06
    Filename : /Users/pat/Desktop/Al di Meola - Opus (2018) [FLAC]/06 Frozen in Time.flac

    Track gain               : -8.39 dB
    Peak                     : 0.999420
    CRC32 hash (test run)    : 8C65092C
    CRC32 hash               : 8C65092C
    CRC32 hash (skip zero)   : 5E1170EB
    AccurateRip v1 signature : 727430B7
    AccurateRip v2 signature : C7659976
        ->Track not present in AccurateRip database.
    Statistics
        Read error                           : 0
        Jitter error (maybe fixed)           : 0
        Retry sector count                   : 0
        Damaged sector count                 : 0

Track 07
    Filename : /Users/pat/Desktop/Al di Meola - Opus (2018) [FLAC]/07 Escapado.flac

    Track gain               : -10.15 dB
    Peak                     : 0.999451
    CRC32 hash (test run)    : F529212E
    CRC32 hash               : F529212E
    CRC32 hash (skip zero)   : 46B2B366
    AccurateRip v1 signature : E8373DDA
    AccurateRip v2 signature : F4B21282
        ->Track not present in AccurateRip database.
    Statistics
        Read error                           : 0
        Jitter error (maybe fixed)           : 0
        Retry sector count                   : 0
        Damaged sector count                 : 0

Track 08
    Filename : /Users/pat/Desktop/Al di Meola - Opus (2018) [FLAC]/08 Pomp.flac

    Track gain               : -7.06 dB
    Peak                     : 0.999329
    CRC32 hash (test run)    : 2D75436D
    CRC32 hash               : 2D75436D
    CRC32 hash (skip zero)   : B6B9D2B9
    AccurateRip v1 signature : D1477C5B
    AccurateRip v2 signature : 528FE933
        ->Track not present in AccurateRip database.
    Statistics
        Read error                           : 0
        Jitter error (maybe fixed)           : 0
        Retry sector count                   : 0
        Damaged sector count                 : 0

Track 09
    Filename : /Users/pat/Desktop/Al di Meola - Opus (2018) [FLAC]/09 Left Unsaid.flac

    Track gain               : -8.40 dB
    Peak                     : 0.999359
    CRC32 hash (test run)    : 89D20C42
    CRC32 hash               : 89D20C42
    CRC32 hash (skip zero)   : 884657F7
    AccurateRip v1 signature : 6C4EAC8D
    AccurateRip v2 signature : 2EBD399E
        ->Track not present in AccurateRip database.
    Statistics
        Read error                           : 0
        Jitter error (maybe fixed)           : 0
        Retry sector count                   : 0
        Damaged sector count                 : 0

Track 10
    Filename : /Users/pat/Desktop/Al di Meola - Opus (2018) [FLAC]/10 Insieme.flac

    Track gain               : -8.62 dB
    Peak                     : 0.999451
    CRC32 hash (test run)    : B8844FFF
    CRC32 hash               : B8844FFF
    CRC32 hash (skip zero)   : 95191C1C
    AccurateRip v1 signature : 75C57F03
    AccurateRip v2 signature : 1195E550
        ->Track not present in AccurateRip database.
    Statistics
        Read error                           : 0
        Jitter error (maybe fixed)           : 0
        Retry sector count                   : 0
        Damaged sector count                 : 0

Track 11
    Filename : /Users/pat/Desktop/Al di Meola - Opus (2018) [FLAC]/11 Rebels.flac

    Track gain               : -8.72 dB
    Peak                     : 0.999481
    CRC32 hash (test run)    : 811F98DB
    CRC32 hash               : 811F98DB
    CRC32 hash (skip zero)   : 80315DEF
    AccurateRip v1 signature : 1E34C19B
    AccurateRip v2 signature : 9ED23DE6
        ->Track not present in AccurateRip database.
    Statistics
        Read error                           : 0
        Jitter error (maybe fixed)           : 0
        Retry sector count                   : 0
        Damaged sector count                 : 0

No errors occurred

End of status report

-----BEGIN XLD SIGNATURE-----
ASgR4jb1IsipYt87JacV2lepEBjwtCicvca8GMM1MfDbfdTte8TE4e1p62_SKT7UoSb78j8okcicGSjJjDBApnzVMW4vCi4kotXbU.K
-----END XLD SIGNATURE-----
Содержание индексной карты (.CUE)
TITLE "Opus"
PERFORMER "Al di Meola"
CATALOG 4029759123712
REM DATE "2018"
REM DISCID 8E0DB40B
REM REPLAYGAIN_ALBUM_GAIN -9.46 dB
REM REPLAYGAIN_ALBUM_PEAK 0.999481
FILE "01 Milonga Noctiva.flac" WAVE
  TRACK 01 AUDIO
    TITLE "Milonga Noctiva"
    PERFORMER "Al di Meola"
    ISRC DEH841701208
    REM REPLAYGAIN_TRACK_GAIN -9.86 dB
    REM REPLAYGAIN_TRACK_PEAK 0.999481
    INDEX 01 00:00:00
FILE "02 Broken Heart.flac" WAVE
  TRACK 02 AUDIO
    TITLE "Broken Heart"
    PERFORMER "Al di Meola"
    ISRC DEH841701209
    REM REPLAYGAIN_TRACK_GAIN -9.07 dB
    REM REPLAYGAIN_TRACK_PEAK 0.999451
    INDEX 01 00:00:00
FILE "03 Ava's Dream Sequence Lullaby.flac" WAVE
  TRACK 03 AUDIO
    TITLE "Ava's Dream Sequence Lullaby"
    PERFORMER "Al di Meola"
    ISRC DEH841701210
    REM REPLAYGAIN_TRACK_GAIN -10.04 dB
    REM REPLAYGAIN_TRACK_PEAK 0.999481
    INDEX 01 00:00:00
FILE "04 Cerreto Sannita.flac" WAVE
  TRACK 04 AUDIO
    TITLE "Cerreto Sannita"
    PERFORMER "Al di Meola"
    ISRC DEH841701211
    REM REPLAYGAIN_TRACK_GAIN -9.91 dB
    REM REPLAYGAIN_TRACK_PEAK 0.999420
    INDEX 01 00:00:00
FILE "05 Notorious.flac" WAVE
  TRACK 05 AUDIO
    TITLE "Notorious"
    PERFORMER "Al di Meola"
    ISRC DEH841701212
    REM REPLAYGAIN_TRACK_GAIN -8.67 dB
    REM REPLAYGAIN_TRACK_PEAK 0.999420
    INDEX 01 00:00:00
FILE "06 Frozen in Time.flac" WAVE
  TRACK 06 AUDIO
    TITLE "Frozen in Time"
    PERFORMER "Al di Meola"
    ISRC DEH841701213
    REM REPLAYGAIN_TRACK_GAIN -8.39 dB
    REM REPLAYGAIN_TRACK_PEAK 0.999420
    INDEX 01 00:00:00
FILE "07 Escapado.flac" WAVE
  TRACK 07 AUDIO
    TITLE "Escapado"
    PERFORMER "Al di Meola"
    ISRC DEH841701214
    REM REPLAYGAIN_TRACK_GAIN -10.15 dB
    REM REPLAYGAIN_TRACK_PEAK 0.999451
    INDEX 01 00:00:00
FILE "08 Pomp.flac" WAVE
  TRACK 08 AUDIO
    TITLE "Pomp"
    PERFORMER "Al di Meola"
    ISRC DEH841701215
    REM REPLAYGAIN_TRACK_GAIN -7.06 dB
    REM REPLAYGAIN_TRACK_PEAK 0.999329
    INDEX 01 00:00:00
FILE "09 Left Unsaid.flac" WAVE
  TRACK 09 AUDIO
    TITLE "Left Unsaid"
    PERFORMER "Al di Meola"
    ISRC DEH841701216
    REM REPLAYGAIN_TRACK_GAIN -8.40 dB
    REM REPLAYGAIN_TRACK_PEAK 0.999359
    INDEX 01 00:00:00
FILE "10 Insieme.flac" WAVE
  TRACK 10 AUDIO
    TITLE "Insieme"
    PERFORMER "Al di Meola"
    ISRC DEH841701217
    REM REPLAYGAIN_TRACK_GAIN -8.62 dB
    REM REPLAYGAIN_TRACK_PEAK 0.999451
    INDEX 01 00:00:00
FILE "11 Rebels.flac" WAVE
  TRACK 11 AUDIO
    TITLE "Rebels"
    PERFORMER "Al di Meola"
    ISRC DEH841701218
    REM REPLAYGAIN_TRACK_GAIN -8.72 dB
    REM REPLAYGAIN_TRACK_PEAK 0.999481
    INDEX 01 00:00:00
Лог проверки качества
[CUETools log; Date: 04.03.2018 11:32:51; Version: 2.0.9]
[CTDB TOCID: SuK6Oo35etXqUsIXD0YkF7re_LA-] found.
        [ CTDBID ] Status
        [11a55bfa] (9/9) Accurately ripped
[AccurateRip ID: 001ac6cb-00df42e2-8e0db40b] disk not present in database.

Track Peak [ CRC32  ] [W/O NULL]
 --   99,9 [3BCC67D6] [96B5B9D1]
 01   99,9 [AD9D32A4] [BEB741FD]
 02   99,9 [462EAC72] [57702437]
 03   99,9 [13369F1B] [D22B5900]
 04   99,9 [0A4B866F] [41BFB102]
 05   99,9 [28AC58F4] [882E1268]
 06   99,9 [8C65092C] [5E1170EB]
 07   99,9 [F529212E] [46B2B366]
 08   99,9 [2D75436D] [B6B9D2B9]
 09   99,9 [89D20C42] [884657F7]
 10   99,9 [B8844FFF] [95191C1C]
 11   99,9 [811F98DB] [80315DEF]
Приватный:
Нет (DHT включён)
Размер:
362.72 Мб (380,343,233 байт) » файлов: 16
Участники:
2 раздают, 0 качают (2 участников всего)
Внешние участники:
--- [ Обновить ]
Скорость:
7.43 Мб/c 0/c
12:25
105
RSS
Нет комментариев. Ваш будет первым!