Поиск

2017 VA - The Pinnacle Of Chesky Voice {Chesky} [DSD64]

2017 VA - The Pinnacle Of Chesky Voice {Chesky} [DSD64]
Битрейт аудио:
lossless
Треклист:

01 - Rebecca Pidgeon - Kalerka (3:06)
02 - Rosa Passos, Ron Carter - The Girl From Ipanema (3:19)
03 - Marta Gómez - Confesion (4:21)
04 - Amber Rubarth - Full Moon In Paris (3:28)
05 - Ana Caram - Fly Me To The Moon (4:09)
06 - LaVerne Butler - I Cover The Waterfront (6:08)
07 - Sara K. - Vincent (4:08)
08 - Christy Baron - She's Not There (3:35)
09 - Valerie Joyce - Baby Can I Hold You (3:12)
10 - Carla Lother - The Lake (4:28)
11 - Alexis Cole - A Kiss In The Dark (2:35)
12 - Christy Baron - Happy Together (2:52)
13 - LaVerne Butler - Day Dreaming (3:38)
14 - Rachel Z - Imagine (6:57)
15 - Macy Gray - I Try (4:18)
16 - Melissa Menago - Airplane (3:35)

Доп. инфо:

Формат записи/Источник записи: [SACD-R][OF]
Наличие водяных знаков: Нет
Издание: Sampler
Год издания/переиздания диска: 2017
Жанр: Vocal Jazz
Издатель (лейбл): Chesky Records
Продолжительность: 01:03:49
Наличие сканов в содержимом раздачи: Только обложка альбома

Контейнер: ISO (*.iso)
Тип рипа: image
Разрядность: 64(2,8 MHz/1 Bit)
Формат: DSD
Количество каналов: 2.0

Источник (релизер): рип MihRih, выполнен на Cambridge CXU
DiscogsHRAudio.netinakustik

Лог проверки качества
foobar2000 1.4.6 / Dynamic Range Meter 1.1.1
log date: 2019-09-15 20:20:32

--------------------------------------------------------------------------------
Analyzed: Various / The Pinnacle Of Chesky Voice
--------------------------------------------------------------------------------

DR         Peak         RMS     Duration Track
--------------------------------------------------------------------------------
DR12      -6.51 dB   -21.82 dB      3:03 01-Kalerka
DR13      -6.57 dB   -22.53 dB      3:19 02-The Girl From Ipanema
DR13      -6.52 dB   -24.50 dB      4:19 03-Confesion
DR14      -6.52 dB   -24.68 dB      3:28 04-Full Moon In Paris
DR13      -6.67 dB   -23.46 dB      4:07 05-Fly Me To The Moon
DR14      -6.52 dB   -23.91 dB      6:06 06-I Cover The Waterfront
DR10      -9.86 dB   -23.34 dB      4:07 07-Vincent
DR12      -6.55 dB   -21.01 dB      3:35 08-She's Not There
DR11      -7.25 dB   -23.01 dB      3:12 09-Baby Can I Hold You
DR12      -6.52 dB   -21.44 dB      4:28 10-The Lake
DR11      -6.52 dB   -20.38 dB      2:35 11-A Kiss In The Dark
DR11      -6.52 dB   -19.67 dB      2:51 12-Happy Together
DR13      -6.52 dB   -23.23 dB      3:38 13-Day Dreaming
DR13      -6.47 dB   -22.46 dB      6:57 14-Imagine
DR12      -6.52 dB   -20.37 dB      4:18 15-I Try
DR13      -6.47 dB   -23.37 dB      3:35 16-Airplane
--------------------------------------------------------------------------------

Number of tracks:  16
Official DR value: DR12

Samplerate:        2822400 Hz / PCM Samplerate: 88200 Hz
Channels:          2
Bits per sample:   1
Bitrate:           5645 kbps
Codec:             DSD64
================================================================================
Приватный:
Нет (DHT включён)
Размер:
2.56 Гб (2,746,245,067 байт) » файлов: 4
Участники:
0 раздают, 0 качают (0 участников всего)
Внешние участники:
34 раздают, 11 качают (45 участников всего) [ Обновить ]
Скорость:
0/c 11.44 Кб/c
21:57
8
Нет комментариев. Ваш будет первым!