Поиск

2017 VA - 2xHD Jazz {2xHD} [24-192]

2017 VA - 2xHD Jazz {2xHD} [24-192]
Стили:
Треклист:

01. How About You (Bill Evans)
02. My Funny Valentine (Bill Evans)
03. Summer Night (Stan Getz)
04. I Got It Bad (and That Ain't Good) (Sarah Vaughan)
05. Hi Fly (Shirley Horn)
06. Just for a Thrill (Shirley Horn)
07. É Preciso Perdoar (João Gilberto)
08. Aguas de Março (Waters of March) (João Gilberto)
09. Prelude to a Kiss (Stan Getz)
10. Round Midnight (take 1) (Bill Evans)
11. In a Sentimental Mood (Bill Evans)
12. All My Yesterdays (Thad Jones / Mel Lewis Orchestra)
13. Low Down (Thad Jones / Mel Lewis Orchestra)
14. I Could Write A Book (Sarah Vaughan)
15. Talkin' About J.C. (Larry Young)
16. Beyond All Limits (Larry Young)

Доп. инфо:

Формат записи/Источник записи: [TR24][OF]
Наличие водяных знаков: Нет
Год издания: 2017
Жанр: Jazz, Vocal Jazz, Compilations
Издатель (лейбл): 2xHD
Продолжительность: 01:40:44
Наличие сканов в содержимом раздачи: Буклет PDF
Контейнер: FLAC (*.flac)
Тип рипа: tracks
Разрядность: 24/192
Формат: PCM
Количество каналов: 2.0
Источник (релизер): highresaudio.com

Лог проверки качества
foobar2000 1.4 / Dynamic Range Meter 1.1.1
log date: 2019-08-18 08:15:18

--------------------------------------------------------------------------------
Analyzed: Various Artists 2xHD Jazz / 2xHD Jazz (Remastered)
--------------------------------------------------------------------------------

DR         Peak         RMS     Duration Track
--------------------------------------------------------------------------------
DR9       -1.84 dB   -13.95 dB      4:03 01-How About You
DR11      -1.15 dB   -14.80 dB      7:04 02-My Funny Valentine
DR10      -3.28 dB   -16.61 dB      9:17 03-Summer Night
DR8        0.00 dB   -11.03 dB      5:17 04-I Got It Bad (and That Ain't Good)
DR14      -0.94 dB   -17.93 dB      7:47 05-Hi Fly
DR13      -1.35 dB   -20.23 dB      5:11 06-Just for a Thrill
DR14      -3.10 dB   -23.13 dB      5:39 07-É preciso perdoar: É Preciso Perdoar
DR13      -6.31 dB   -23.19 dB      5:46 08-Aguas de Março (Waters of March)
DR15      -7.76 dB   -27.18 dB      5:37 09-Prelude to a Kiss
DR13      -3.27 dB   -21.58 dB      6:26 10-'Round Midnight (take 1)
DR12      -3.93 dB   -19.84 dB      4:11 11-In a Sentimental Mood
DR12      -2.85 dB   -20.36 dB      4:15 12-All My Yesterdays
DR11      -1.77 dB   -15.84 dB      4:39 13-Low Down
DR9       -0.05 dB   -11.80 dB      3:03 14-I Could Write A Book
DR12      -0.33 dB   -14.77 dB     14:56 15-Talkin' About J.C.
DR13      -0.18 dB   -15.47 dB      7:39 16-Beyond All Limits
--------------------------------------------------------------------------------

Number of tracks:  16
Official DR value: DR12
Samplerate:        192000 Hz
Channels:          2
Bits per sample:   24
Bitrate:           5913 kbps
Codec:             FLAC
================================================================================
Приватный:
Нет (DHT включён)
Размер:
3.66 Гб (3,924,811,532 байт) » файлов: 19
Участники:
0 раздают, 0 качают (0 участников всего)
Внешние участники:
--- [ Обновить ]
Нет сидеров - пишите личное сообщение M0p94ok. Не нравятся торренты? Участники группы Pro-jazz Club могут заказать прямую ссылку на скачивание из облака.
No seeders - write a personal message to M0p94ok. Don't like torrents? Members of Pro-jazz Club group can order a direct download link from the cloud.
23:03
26
Нет комментариев. Ваш будет первым!