Поиск

2017 The Reunion Project - Varanda {Tapestry 76027-2} [CD]

2017 The Reunion Project - Varanda {Tapestry 76027-2} [CD]

Треклист:

1. Sinuosa (5:06) Chico Pinheiro
2. Cobalt Blue (7:10) Tiago Costa
3. Maracatim (5:17) Edu Ribeiro
4. Sunset (9:28) Bruno Migotto
5. Jack And The Goblin Brother (8:44) Felipe Salles
6. Varanda (3:16) Tiago Costa/Chico Pinheiro
7. Reunion (7:58) Felipe Salles
8. Mathias (7:38) Edu Ribeiro
9. Br (5:15) Chico Pinheiro
10.Yesterdays (6:47) Jerome Kern

 
Замер динамического диапазона
foobar2000 1.3.10 / Замер динамического диапазона (DR) 1.1.1
Дата отчёта:  2019-01-15 07:22:07
--------------------------------------------------------------------------------
Анализ:   The Reunion Project / Varanda
--------------------------------------------------------------------------------
DR         Пики         RMS           Продолжительность трека
--------------------------------------------------------------------------------
DR9       -0.10 дБ   -10.40 дБ      5:06 01-Sinuosa
DR8       -0.10 дБ   -11.05 дБ      7:10 02-Cobalt Blue
DR10      -0.14 дБ   -12.51 дБ      5:17 03-Maracatim
DR11      -0.10 дБ   -13.99 дБ      9:28 04-Sunset
DR8       -0.10 дБ   -10.41 дБ      8:44 05-Jack and the Goblin Brother
DR10      -0.20 дБ   -13.09 дБ      3:16 06-Varanda
DR8       -0.11 дБ   -11.01 дБ      7:58 07-Reunion
DR9       -0.17 дБ   -12.31 дБ      7:38 08-Mathias
DR8       -0.13 дБ   -10.51 дБ      5:15 09-Br
DR10      -0.19 дБ   -13.62 дБ      6:47 10-Yesterdays
--------------------------------------------------------------------------------
Количество треков: 10
Реальные значения DR: DR9
Частота:   44100 Гц
Каналов:   2
Разрядность:   16
Битрейт:   746 кбит/с
Кодек:   FLAC
================================================================================
Состав:
  • Felipe Salles, Tenor And Soprano Saxophones, Flute, Clarinet, Bass Clarinet
  • Chico Pinheiro, Guitar
  • Tiago Costa, Piano
  • Bruno Migotto, Bass
  • Edu Ribeiro, Drums

Жанр: Jazz, Latino, Post Bop
Носитель: CD (Digipack)
Страна-производитель диска (релиза): Brazil
Год издания оригинала: 2017
Издатель (лейбл): Self Released, Tapestry Records
Номер по каталогу: 76027-2
Страна исполнителя (группы) : Brazil
Дата / место записи: At Wellpring Sound Recording Studio, Acton, MA on March 7 & 8, 2016 by Matt Hayes and Pat Meany

Аудио кодек: FLAC (*.flac)
Тип рипа: (tracks + .cue)
Битрейт аудио: lossless
Наличие сканов в содержимом раздачи: full scans, png, 300 dpi
Продолжительность: 1:00:09
Источник (релизер): Musicgate

Лог создания рипа
Exact Audio Copy V1.3 from 2. September 2016

EAC extraction logfile from 8. January 2019, 9:04

The Reunion Project / Varanda

Used drive  : HL-DT-STDVDRAM GH24NSB0   Adapter: 1  ID: 0

Read mode               : Secure
Utilize accurate stream : Yes
Defeat audio cache      : Yes
Make use of C2 pointers : No

Read offset correction                      : 6
Overread into Lead-In and Lead-Out          : No
Fill up missing offset samples with silence : Yes
Delete leading and trailing silent blocks   : No
Null samples used in CRC calculations       : Yes
Used interface                              : Native Win32 interface for Win NT & 2000
Gap handling                                : Appended to previous track

Used output format              : User Defined Encoder
Selected bitrate                : 1024 kBit/s
Quality                         : High
Add ID3 tag                     : No
Command line compressor         : C:\Program Files (x86)\Exact Audio Copy\FLAC\FLAC.EXE
Additional command line options : -V -8 -T "Genre=%genre%" -T "Artist=%artist%" -T "Title=%title%" -T "Album=%albumtitle%" -T "Date=%year%" -T "Tracknumber=%tracknr%" -T "Comment=%comment%" %source%

TOC of the extracted CD

     Track |   Start  |  Length  | Start sector | End sector
    ---------------------------------------------------------
        1  |  0:00.00 |  5:05.48 |         0    |    22922
        2  |  5:05.48 |  7:09.52 |     22923    |    55149
        3  | 12:15.25 |  5:16.68 |     55150    |    78917
        4  | 17:32.18 |  9:28.01 |     78918    |   121518
        5  | 27:00.19 |  8:44.30 |    121519    |   160848
        6  | 35:44.49 |  3:15.56 |    160849    |   175529
        7  | 39:00.30 |  7:58.33 |    175530    |   211412
        8  | 46:58.63 |  7:38.06 |    211413    |   245768
        9  | 54:36.69 |  5:14.63 |    245769    |   269381
       10  | 59:51.57 |  6:46.52 |    269382    |   299883

Track  1

     Filename D:\Music\MG rips\The Reunion Project - Varanda - 2017 (Self Released) [FLAC]\01 - Sinuosa.wav

     Pre-gap length  0:00:02.00

     Peak level 98.8 %
     Extraction speed 1.1 X
     Track quality 100.0 %
     Test CRC 4F8DF047
     Copy CRC 4F8DF047
     Accurately ripped (confidence 2)  [11DF7B41]  (AR v2)
     Copy OK

Track  2

     Filename D:\Music\MG rips\The Reunion Project - Varanda - 2017 (Self Released) [FLAC]\02 - Cobalt Blue.wav

     Pre-gap length  0:00:00.24

     Peak level 98.8 %
     Extraction speed 1.4 X
     Track quality 100.0 %
     Test CRC 05680B95
     Copy CRC 05680B95
     Accurately ripped (confidence 2)  [BE2FADEF]  (AR v2)
     Copy OK

Track  3

     Filename D:\Music\MG rips\The Reunion Project - Varanda - 2017 (Self Released) [FLAC]\03 - Maracatim.wav

     Pre-gap length  0:00:00.64

     Peak level 98.3 %
     Extraction speed 1.5 X
     Track quality 100.0 %
     Test CRC EE80B893
     Copy CRC EE80B893
     Accurately ripped (confidence 2)  [DE6BA903]  (AR v2)
     Copy OK

Track  4

     Filename D:\Music\MG rips\The Reunion Project - Varanda - 2017 (Self Released) [FLAC]\04 - Sunset.wav

     Pre-gap length  0:00:01.68

     Peak level 98.8 %
     Extraction speed 1.6 X
     Track quality 99.9 %
     Test CRC 2BE304DA
     Copy CRC 2BE304DA
     Accurately ripped (confidence 2)  [D0457356]  (AR v2)
     Copy OK

Track  5

     Filename D:\Music\MG rips\The Reunion Project - Varanda - 2017 (Self Released) [FLAC]\05 - Jack and the Goblin Brother.wav

     Pre-gap length  0:00:01.27

     Peak level 98.8 %
     Extraction speed 1.9 X
     Track quality 100.0 %
     Test CRC 9C19BA37
     Copy CRC 9C19BA37
     Accurately ripped (confidence 2)  [B4406602]  (AR v2)
     Copy OK

Track  6

     Filename D:\Music\MG rips\The Reunion Project - Varanda - 2017 (Self Released) [FLAC]\06 - Varanda.wav

     Pre-gap length  0:00:03.28

     Peak level 97.7 %
     Extraction speed 1.8 X
     Track quality 100.0 %
     Test CRC 4DC6F6FE
     Copy CRC 4DC6F6FE
     Accurately ripped (confidence 2)  [C9A82B94]  (AR v2)
     Copy OK

Track  7

     Filename D:\Music\MG rips\The Reunion Project - Varanda - 2017 (Self Released) [FLAC]\07 - Reunion.wav

     Pre-gap length  0:00:01.59

     Peak level 98.7 %
     Extraction speed 2.0 X
     Track quality 99.9 %
     Test CRC 37113B04
     Copy CRC 37113B04
     Accurately ripped (confidence 2)  [A711D58B]  (AR v2)
     Copy OK

Track  8

     Filename D:\Music\MG rips\The Reunion Project - Varanda - 2017 (Self Released) [FLAC]\08 - Mathias.wav

     Pre-gap length  0:00:01.59

     Peak level 98.1 %
     Extraction speed 2.3 X
     Track quality 100.0 %
     Test CRC 4F6DD2F7
     Copy CRC 4F6DD2F7
     Accurately ripped (confidence 2)  [DC3A7315]  (AR v2)
     Copy OK

Track  9

     Filename D:\Music\MG rips\The Reunion Project - Varanda - 2017 (Self Released) [FLAC]\09 - Br.wav

     Pre-gap length  0:00:01.70

     Peak level 98.5 %
     Extraction speed 2.3 X
     Track quality 100.0 %
     Test CRC 977C6911
     Copy CRC 977C6911
     Accurately ripped (confidence 2)  [175DBDAB]  (AR v2)
     Copy OK

Track 10

     Filename D:\Music\MG rips\The Reunion Project - Varanda - 2017 (Self Released) [FLAC]\10 - Yesterdays.wav

     Pre-gap length  0:00:02.46

     Peak level 97.8 %
     Extraction speed 2.2 X
     Track quality 99.9 %
     Test CRC 9DB9E5DE
     Copy CRC 9DB9E5DE
     Accurately ripped (confidence 2)  [26D473F3]  (AR v2)
     Copy OK

All tracks accurately ripped

No errors occurred

End of status report

==== Log checksum 34FAABAB6051D785838C75A1A6DB7A13A774A4DE3AB497514C560D899EFE2956 ====
Содержание индексной карты (.CUE)
REM GENRE Jazz
REM DATE 2017
REM DISCID 7E0F9E0A
REM COMMENT "ExactAudioCopy v1.3"
PERFORMER "The Reunion Project"
TITLE "Varanda"
REM COMPOSER ""
FILE "01 - Sinuosa.wav" WAVE
  TRACK 01 AUDIO
    TITLE "Sinuosa"
    PERFORMER "The Reunion Project"
    REM COMPOSER ""
    ISRC QM9AA1697331
    INDEX 01 00:00:00
  TRACK 02 AUDIO
    TITLE "Cobalt Blue"
    PERFORMER "The Reunion Project"
    REM COMPOSER ""
    ISRC QM9AA1697332
    INDEX 00 05:05:24
FILE "02 - Cobalt Blue.wav" WAVE
    INDEX 01 00:00:00
  TRACK 03 AUDIO
    TITLE "Maracatim"
    PERFORMER "The Reunion Project"
    REM COMPOSER ""
    ISRC QM9AA1697333
    INDEX 00 07:08:63
FILE "03 - Maracatim.wav" WAVE
    INDEX 01 00:00:00
  TRACK 04 AUDIO
    TITLE "Sunset"
    PERFORMER "The Reunion Project"
    REM COMPOSER ""
    ISRC QM9AA1697334
    INDEX 00 05:15:00
FILE "04 - Sunset.wav" WAVE
    INDEX 01 00:00:00
  TRACK 05 AUDIO
    TITLE "Jack and the Goblin Brother"
    PERFORMER "The Reunion Project"
    REM COMPOSER ""
    ISRC QM9AA1697335
    INDEX 00 09:26:49
FILE "05 - Jack and the Goblin Brother.wav" WAVE
    INDEX 01 00:00:00
  TRACK 06 AUDIO
    TITLE "Varanda"
    PERFORMER "The Reunion Project"
    REM COMPOSER ""
    ISRC QM9AA1697336
    INDEX 00 08:41:02
FILE "06 - Varanda.wav" WAVE
    INDEX 01 00:00:00
  TRACK 07 AUDIO
    TITLE "Reunion"
    PERFORMER "The Reunion Project"
    REM COMPOSER ""
    ISRC QM9AA1697337
    INDEX 00 03:13:72
FILE "07 - Reunion.wav" WAVE
    INDEX 01 00:00:00
  TRACK 08 AUDIO
    TITLE "Mathias"
    PERFORMER "The Reunion Project"
    REM COMPOSER ""
    ISRC QM9AA1697338
    INDEX 00 07:56:49
FILE "08 - Mathias.wav" WAVE
    INDEX 01 00:00:00
  TRACK 09 AUDIO
    TITLE "Br"
    PERFORMER "The Reunion Project"
    REM COMPOSER ""
    ISRC QM9AA1697339
    INDEX 00 07:36:11
FILE "09 - Br.wav" WAVE
    INDEX 01 00:00:00
  TRACK 10 AUDIO
    TITLE "Yesterdays"
    PERFORMER "The Reunion Project"
    REM COMPOSER ""
    ISRC QM9AA1697340
    INDEX 00 05:12:17
FILE "10 - Yesterdays.wav" WAVE
    INDEX 01 00:00:00
Лог проверки качества
[CUETools log; Date: 1/15/2019 7:25:59 AM; Version: 2.1.5]
[CTDB TOCID: O5QWAv_9_xM6KmP_5BkfKhQ_lAw-] found.
Track | CTDB Status
  1   | (1/1) Accurately ripped
  2   | (1/1) Accurately ripped
  3   | (1/1) Accurately ripped
  4   | (1/1) Accurately ripped
  5   | (1/1) Accurately ripped
  6   | (1/1) Accurately ripped
  7   | (1/1) Accurately ripped
  8   | (1/1) Accurately ripped
  9   | (1/1) Accurately ripped
 10   | (1/1) Accurately ripped
[AccurateRip ID: 00190b79-00c9c8c9-7e0f9e0a] found.
Track   [  CRC   |   V2   ] Status
 01     [09e44ec3|11df7b41] (0+2/2) Accurately ripped
 02     [9983f852|be2fadef] (0+2/2) Accurately ripped
 03     [4296eee3|de6ba903] (0+2/2) Accurately ripped
 04     [ef67c1a7|d0457356] (0+2/2) Accurately ripped
 05     [476d8562|b4406602] (0+2/2) Accurately ripped
 06     [e878a0bd|c9a82b94] (0+2/2) Accurately ripped
 07     [b2cae3f1|a711d58b] (0+2/2) Accurately ripped
 08     [b4eead60|dc3a7315] (0+2/2) Accurately ripped
 09     [64026a4e|175dbdab] (0+2/2) Accurately ripped
 10     [3ad18944|26d473f3] (0+2/2) Accurately ripped

Track Peak [ CRC32  ] [W/O NULL] [  LOG   ]
 --   98.8 [15596F90] [7A587A44]
 01   98.8 [4F8DF047] [D6E3DAE6]   CRC32
 02   98.8 [05680B95] [8D29E0F4]   CRC32
 03   98.3 [EE80B893] [B88CB446]   CRC32
 04   98.8 [2BE304DA] [A4A45E5E]   CRC32
 05   98.8 [9C19BA37] [B3328D68]   CRC32
 06   97.7 [4DC6F6FE] [12952D23]   CRC32
 07   98.7 [37113B04] [4B0178D3]   CRC32
 08   98.1 [4F6DD2F7] [EA4E4B05]   CRC32
 09   98.5 [977C6911] [47C7B8CD]   CRC32
 10   97.8 [9DB9E5DE] [A85A6733]   CRC32
По всем вопросам пишите личное сообщение пользователю M0p94ok.
07:40
377
Нет комментариев. Ваш будет первым!