Поиск

2017 Roscoe Mitchell - Bells For The South Side (2CD) { ECM 2494-2495}

2017 Roscoe Mitchell - Bells For The South Side (2CD) { ECM 2494-2495}
Страна-производитель диска (релиза):
Germany
Дата издания диска:
2017
Номер по каталогу:
ECM 2494-2495
Носитель:
CD
Битрейт аудио:
lossless
Аудиокодек:
FLAC (*.flac)
Тип рипа:
tracks+.cue
Время звучания:
63:48
Наличие сканов:
  • да
Релизёр (источник):
jlgt
Треклист:
CD 1
1.Spatial Aspects Of The Sound - 12:14
2.Panoply - 07:36
3.Prelude To A Rose - 12:44
4.Dancing In The Canyon - 10:23
5.Ep 7849 - 08:13
6.Bells For The South Side - 12:35

CD 2
1.Prelude To The Card Game, Cards For Drums, And The Final Han - 16:03
2.The Last Chord - 12:26
3.Six Gongs And Two Woodblocks - 07:50
4.R509a Twenty B - 01:34
5.Red Moon In The Sky / Odwalla - 25:49
Состав:
  • Roscoe Mitchell Sopranino, Soprano, Alto and Bass Saxophone, Flute, Piccolo, Bass Recorder, Percussion
  • James Fei Sopranino and Alto Saxophone, Contra Alto Clarinet, Electronics
  • Hugh Ragin Trumpet, Piccolo Trumpet
  • Tyshawn Sorey Trombone, Piano, Drums, Percussion
  • Craig Taborn Piano, Organ, Electronics
  • Jaribu Shahid Double Bass, Bass Guitar, Percussion
  • Tani Tabbal Drums, Percussion
  • Kikanju Baku Drums, Percussion
  • William Winant Percussion, Tubular Bells, Glockenspiel, Vibraphone, Marimba, Roto Toms, Cymbals, Bass Drum, Woodblocks, Timpani
<spoiler title="Лог создания рипа"><pre>
Exact Audio Copy V1.0 beta 3 from 29. August 2011
EAC extraction logfile from 17. June 2017, 22:21
Roscoe Mitchell / Bells For The South Side [ECM 2494]
Used drive : ASUS DRW-24F1ST a Adapter: 0 ID: 0
Read mode : Secure
Utilize accurate stream : Yes
Defeat audio cache : Yes
Make use of C2 pointers : No
Read offset correction : 6
Overread into Lead-In and Lead-Out : No
Fill up missing offset samples with silence : Yes
Delete leading and trailing silent blocks : No
Null samples used in CRC calculations : Yes
Used interface : Native Win32 interface for Win NT & 2000
Gap handling : Appended to previous track
Used output format : User Defined Encoder
Selected bitrate : 128 kBit/s
Quality : High
Add ID3 tag : No
Command line compressor : C:\Program Files (x86)\Exact Audio Copy\FLAC\FLAC.EXE
Additional command line options : -8 -V -T "ARTIST=%artist%" -T "TITLE=%title%" -T "ALBUM=%albumtitle%" -T "DATE=%year%" -T "TRACKNUMBER=%tracknr%" -T "TOTALTRACKS=%numtracks%" -T "GENRE=%genre%" -T "ALBUMARTIST=%albumartist%" -T "ALBUM ARTIST=%albumartist%" -T "COMMENT=EAC Secure Mode, Test & Copy, AccurateRip, FLAC -8" %source%
TOC of the extracted CD Track | Start | Length | Start sector | End sector --------------------------------------------------------- 1 | 0:00.00 | 12:14.07 | 0 | 55056 2 | 12:14.07 | 7:36.69 | 55057 | 89325 3 | 19:51.01 | 12:44.48 | 89326 | 146673 4 | 32:35.49 | 10:23.73 | 146674 | 193471 5 | 42:59.47 | 8:13.51 | 193472 | 230497 6 | 51:13.23 | 12:35.52 | 230498 | 287174
Track 1 Filename K:\EAC\01 - Spatial Aspects of the Sound.wav Pre-gap length 0:00:02.00 Peak level 96.4 % Extraction speed 5.4 X Track quality 100.0 % Test CRC 13E9E087 Copy CRC 13E9E087 Track not present in AccurateRip database Copy OK
Track 2 Filename K:\EAC\02 - Panoply.wav Peak level 98.9 % Extraction speed 6.3 X Track quality 100.0 % Test CRC 70614671 Copy CRC 70614671 Track not present in AccurateRip database Copy OK
Track 3 Filename K:\EAC\03 - Prelude to a Rose.wav Peak level 100.0 % Extraction speed 7.4 X Track quality 100.0 % Test CRC 59891C81 Copy CRC 59891C81 Track not present in AccurateRip database Copy OK
Track 4 Filename K:\EAC\04 - Dancing in the Canyon.wav Peak level 99.0 % Extraction speed 8.2 X Track quality 100.0 % Test CRC E52C4E0A Copy CRC E52C4E0A Track not present in AccurateRip database Copy OK
Track 5 Filename K:\EAC\05 - EP 7849.wav Peak level 96.3 % Extraction speed 8.0 X Track quality 99.9 % Test CRC 8246B453 Copy CRC 8246B453 Track not present in AccurateRip database Copy OK
Track 6 Filename K:\EAC\06 - Bells For The South Side.wav Peak level 95.9 % Extraction speed 9.5 X Track quality 100.0 % Test CRC 6157E3D5 Copy CRC 6157E3D5 Track not present in AccurateRip database Copy OK
None of the tracks are present in the AccurateRip database
No errors occurred
End of status report
==== Log checksum E7A27353A465E3589F076E68EDD9CAA5F8933403ABFADC35736A036000655B34 ====
<spoiler title="Содержание индексной карты (.CUE)"><pre>
REM GENRE Jazz
REM DATE 2017
REM DISCID 550EF506
REM COMMENT "ExactAudioCopy v1.0b3"
PERFORMER "Roscoe Mitchell"
TITLE "Bells For The South Side [ECM 2494]"
FILE "01 - Spatial Aspects of the Sound.wav" WAVE TRACK 01 AUDIO TITLE "Spatial Aspects of the Sound" PERFORMER "Roscoe Mitchell" INDEX 01 00:00:00
FILE "02 - Panoply.wav" WAVE TRACK 02 AUDIO TITLE "Panoply" PERFORMER "Roscoe Mitchell" INDEX 01 00:00:00
FILE "03 - Prelude to a Rose.wav" WAVE TRACK 03 AUDIO TITLE "Prelude to a Rose" PERFORMER "Roscoe Mitchell" INDEX 01 00:00:00
FILE "04 - Dancing in the Canyon.wav" WAVE TRACK 04 AUDIO TITLE "Dancing in the Canyon" PERFORMER "Roscoe Mitchell" INDEX 01 00:00:00
FILE "05 - EP 7849.wav" WAVE TRACK 05 AUDIO TITLE "EP 7849" PERFORMER "Roscoe Mitchell" INDEX 01 00:00:00
FILE "06 - Bells For The South Side.wav" WAVE TRACK 06 AUDIO TITLE "Bells For The South Side" PERFORMER "Roscoe Mitchell" INDEX 01 00:00:00
Приватный Нет (DHT включён)
Хэш 4F842B05318D4EB2CD5477E1CC071E18DC28E9D2
Размер 716.07 Мб (750,850,448 байт) » файлов: 35 [ Список файлов ]
Участники 0 раздают, 0 качают (0 участников всего)
Внешние участники 14 раздают, 5 качают (19 участников всего)
Скорость Сейчас никто не качает
20:17
85
RSS
Нет комментариев. Ваш будет первым!