Поиск

2017 Jan Lundgren - Potsdamer Platz {ACT Music} [24-96]

2017 Jan Lundgren - Potsdamer Platz {ACT Music} [24-96]
Стили:
Издатель (лейбл):

Треклист:

Формат записи/Источник записи: [TR24][OF]
Наличие водяных знаков: Нет
Год издания/переиздания диска: 2017
Продолжительность: 56:56
Наличие сканов в содержимом раздачи: Буклет PDF
Контейнер: FLAC (*.flac)
Тип рипа: tracksРазрядность: 24/96
Формат: PCM
Количество каналов: 2.0
Источник: qobuz.com

Треклист:
01. Potsdamer Platz (5:18)
02. No. 9 (4:41)
03. Lycklig Resa (6:02)
04. Bullet Train (5:22)
05. The Poet (5:32)
06. Never Too Late (4:48)
07. Twelve Tone Rag (4:23)
08. Song For Jørgen (5:52)
09. Dance Of Masja (6:24)
10. On The Banks Of The Seine (4:42)
11. Tväredet (3:53)

 
Лог проверки качества
foobar2000 1.3.9 / Dynamic Range Meter 1.1.1
log date: 2018-06-12 15:16:35
--------------------------------------------------------------------------------
Analyzed: Jan Lundgren / Potsdamer Platz
--------------------------------------------------------------------------------
DR         Peak         RMS     Duration Track
--------------------------------------------------------------------------------
DR10      -1.53 dB   -14.26 dB      5:18 01-Potsdamer Platz
DR12      -0.41 dB   -15.77 dB      4:41 02-No. 9
DR12      -0.35 dB   -14.87 dB      6:02 03-Lycklig Resa
DR11      -1.27 dB   -14.53 dB      5:22 04-Bullet Train
DR9       -0.90 dB   -13.33 dB      5:32 05-The Poet
DR12      -0.42 dB   -16.02 dB      4:48 06-Never Too Late
DR11      -1.05 dB   -14.41 dB      4:23 07-Twelve Tone Rag
DR11      -0.81 dB   -13.89 dB      5:52 08-Song For Jørgen
DR10      -0.98 dB   -13.86 dB      6:24 09-Dance Of Masja
DR14      -0.41 dB   -17.49 dB      4:42 10-On The Banks Of The Seine
DR11      -1.63 dB   -15.90 dB      3:53 11-Tväredet
--------------------------------------------------------------------------------
Number of tracks:  11
Official DR value: DR11
Samplerate:        96000 Hz
Channels:          2
Bits per sample:   24
Bitrate:           2705 kbps
Codec:             FLAC
================================================================================

 

Состав:
  • Jan Lundgren - piano
  • Jukka Perko - alto & soprano saxophone
  • Dan Berglund - bass
  • Morten Lund - drums

Produced by Siggi Loch.
Recorded on May 3 & 4, 2015 at Hansa Studio, Berlin.
Engineered, Mixed & Mastered by Arne Schumann

Download available for power users only.
21:04
623
Нет комментариев. Ваш будет первым!