Поиск

2017 Isabelle Olivier - In Between {Enja ENJ-9757} [CD]

2017 Isabelle Olivier - In Between {Enja ENJ-9757} [CD]
Издатель (лейбл):
Номер по каталогу:
ENJ-9757
Треклист:

01. Intro (I.Olivier) - 1:33
02. Peruvian Lullaby (I.Olivier) - 2:11
03. Potawatomi (I.Olivier) - 5:16
04. A New World (I.Olivier) - 4:03
05. Comment ca va? (I.Olivier) - 4:04
06. Glose (I.Olivier) - 10:30
07. Skylark (Carmichael) - 2:42
08. Barbes (I.Olivier-Campbell-T.Olivier-Gray) - 3:38
09. Monarque (I.Olivier) - 2:08
10. Fete de la musique (I.Olivier) - 2:45
11. Impressions (I.Olivier) - 2:38
12. Lisiere (I.Olivier) - 3:40
13. Pantoum (I.Olivier) - 2:28
14. Rengas (I.Olivier) - 2:46
15. In Between (I.Olivier) - 7:28

Доп. инфо:

Носитель: CD
Страна-производитель диска (релиза): Германия
Год издания: 2017
Издатель (лейбл): Enja Records
Номер по каталогу: ENJ-9757
Аудиокодек: FLAC (*.flac)
Тип рипа: tracks+.cue
Битрейт аудио: lossless
Продолжительность: 00:57:50
Источник: psychoboy
Наличие сканов в содержимом раздачи: нет

Отчет CUETools
[CUETools log; Date: 26.02.2019 0:04:32; Version: 2.1.6]
[CTDB TOCID: B4yNYTolvxH7FDklCeP_5vvzJOo-] found.
Track | CTDB Status
1 | (4/4) Accurately ripped
2 | (4/4) Accurately ripped
3 | (4/4) Accurately ripped
4 | (4/4) Accurately ripped
5 | (4/4) Accurately ripped
6 | (4/4) Accurately ripped
7 | (4/4) Accurately ripped
8 | (4/4) Accurately ripped
9 | (4/4) Accurately ripped
10 | (4/4) Accurately ripped
11 | (4/4) Accurately ripped
12 | (4/4) Accurately ripped
13 | (4/4) Accurately ripped
14 | (4/4) Accurately ripped
15 | (4/4) Accurately ripped
[AccurateRip ID: 001f285c-0163b6cf-c60d8f0f] disk not present in database.
Track Peak [ CRC32 ] [W/O NULL]
-- 96,3 [DD003836] [11BFAE4A]
01 48,1 [9B4A5EBA] [4C7170D0]
02 90,5 [CBACDF5F] [5AE1F286]
03 96,3 [30E4A5B9] [BE1D212D]
04 92,4 [A5A8FAF2] [5C62DF2B]
05 94,4 [9577976D] [0033CC39]
06 94,9 [D367B9AF] [2A963B62]
07 91,4 [990739D4] [864594CC]
08 95,0 [A7BB4517] [534A7931]
09 93,7 [106BFB66] [93593C31]
10 96,3 [98E4287C] [D5619AB5]
11 92,1 [0675B967] [210C80D4]
12 95,9 [A64A9580] [F8660430]
13 93,3 [914A2BBE] [4E74AD00]
14 95,2 [9255E8D0] [AEAC5637]
15 96,3 [8DAC09DA] [4CC6A365]
Лог создания рипа
X Lossless Decoder version 20170729 (150.3)
XLD extraction logfile from 2018-04-21 10:58:34 +0200
Isabelle Olivier / In Between
Used drive : (null) (null) (revision (null))
Media type : Pressed CD
Ripper mode : XLD Secure Ripper
Disable audio cache : OK for the drive with a cache less than 1375KiB
Make use of C2 pointers : NO
Read offset correction : 103
Max retry count : 100
Gap status : Analyzed, Appended
TOC of the extracted CD
Track | Start | Length | Start sector | End sector
---------------------------------------------------------
1 | 00:00:00 | 01:33:08 | 0 | 6982
2 | 01:33:08 | 02:11:37 | 6983 | 16844
3 | 03:44:45 | 05:15:69 | 16845 | 40538
4 | 09:00:39 | 04:02:72 | 40539 | 58760
5 | 13:03:36 | 04:04:11 | 58761 | 77071
6 | 17:07:47 | 10:29:43 | 77072 | 124289
7 | 27:37:15 | 02:41:59 | 124290 | 136423
8 | 30:18:74 | 03:38:23 | 136424 | 152796
9 | 33:57:22 | 02:07:44 | 152797 | 162365
10 | 36:04:66 | 02:45:12 | 162366 | 174752
11 | 38:50:03 | 02:38:20 | 174753 | 186622
12 | 41:28:23 | 03:40:36 | 186623 | 203158
13 | 45:08:59 | 02:28:05 | 203159 | 214263
14 | 47:36:64 | 02:46:31 | 214264 | 226744
15 | 50:23:20 | 07:27:57 | 226745 | 260326
AccurateRip Summary
Disc not found in AccurateRip DB.
All Tracks
Album gain : -8.81 dB
Peak : 0.963654
Statistics
Read error : 0
Jitter error (maybe fixed) : 0
Retry sector count : 0
Damaged sector count : 0
Track 01
Filename : /Volumes/О©megО± HD/Rip/Isabelle Olivier - In Between (2017) [FLAC (level 8)]/01 - Isabelle Olivier - Intro.flac
/Volumes/О©megО± HD/Rip/Isabelle Olivier - In Between (2017) [LAME MP3 (VBR-new quality 0.0)]/01 - Isabelle Olivier - Intro.mp3
Pre-gap length : 00:02:00
Track gain : 0.75 dB
Peak : 0.481903
CRC32 hash (test run) : 9B4A5EBA
CRC32 hash : 9B4A5EBA
CRC32 hash (skip zero) : 4C7170D0
AccurateRip v1 signature : 1A32F6CE
AccurateRip v2 signature : 44DBC74E
->Track not present in AccurateRip database.
Statistics
Read error : 0
Jitter error (maybe fixed) : 0
Retry sector count : 0
Damaged sector count : 0
Track 02
Filename : /Volumes/О©megО± HD/Rip/Isabelle Olivier - In Between (2017) [FLAC (level 8)]/02 - Isabelle Olivier - Peruvian Lullaby.flac
/Volumes/О©megО± HD/Rip/Isabelle Olivier - In Between (2017) [LAME MP3 (VBR-new quality 0.0)]/02 - Isabelle Olivier - Peruvian Lullaby.mp3
Track gain : -9.10 dB
Peak : 0.905884
CRC32 hash (test run) : CBACDF5F
CRC32 hash : CBACDF5F
CRC32 hash (skip zero) : 5AE1F286
AccurateRip v1 signature : 854639CF
AccurateRip v2 signature : F3059756
->Track not present in AccurateRip database.
Statistics
Read error : 0
Jitter error (maybe fixed) : 0
Retry sector count : 0
Damaged sector count : 0
Track 03
Filename : /Volumes/О©megО± HD/Rip/Isabelle Olivier - In Between (2017) [FLAC (level 8)]/03 - Isabelle Olivier - Poawatomi.flac
/Volumes/О©megО± HD/Rip/Isabelle Olivier - In Between (2017) [LAME MP3 (VBR-new quality 0.0)]/03 - Isabelle Olivier - Poawatomi.mp3
Track gain : -7.65 dB
Peak : 0.963593
CRC32 hash (test run) : 30E4A5B9
CRC32 hash : 30E4A5B9
CRC32 hash (skip zero) : BE1D212D
AccurateRip v1 signature : 25682055
AccurateRip v2 signature : 522DBC0F
->Track not present in AccurateRip database.
Statistics
Read error : 0
Jitter error (maybe fixed) : 0
Retry sector count : 0
Damaged sector count : 0
Track 04
Filename : /Volumes/О©megО± HD/Rip/Isabelle Olivier - In Between (2017) [FLAC (level 8)]/04 - Isabelle Olivier - A New World.flac
/Volumes/О©megО± HD/Rip/Isabelle Olivier - In Between (2017) [LAME MP3 (VBR-new quality 0.0)]/04 - Isabelle Olivier - A New World.mp3
Track gain : -8.90 dB
Peak : 0.924042
CRC32 hash (test run) : A5A8FAF2
CRC32 hash : A5A8FAF2
CRC32 hash (skip zero) : 5C62DF2B
AccurateRip v1 signature : 3F139C95
AccurateRip v2 signature : 11FA3415
->Track not present in AccurateRip database.
Statistics
Read error : 0
Jitter error (maybe fixed) : 0
Retry sector count : 0
Damaged sector count : 0
Track 05
Filename : /Volumes/О©megО± HD/Rip/Isabelle Olivier - In Between (2017) [FLAC (level 8)]/05 - Isabelle Olivier - Comment Ca Va_.flac
/Volumes/О©megО± HD/Rip/Isabelle Olivier - In Between (2017) [LAME MP3 (VBR-new quality 0.0)]/05 - Isabelle Olivier - Comment Ca Va_.mp3
Track gain : -9.48 dB
Peak : 0.944122
CRC32 hash (test run) : 9577976D
CRC32 hash : 9577976D
CRC32 hash (skip zero) : 0033CC39
AccurateRip v1 signature : ABBE9989
AccurateRip v2 signature : FC40D54F
->Track not present in AccurateRip database.
Statistics
Read error : 0
Jitter error (maybe fixed) : 0
Retry sector count : 0
Damaged sector count : 0
Track 06
Filename : /Volumes/О©megО± HD/Rip/Isabelle Olivier - In Between (2017) [FLAC (level 8)]/06 - Isabelle Olivier - Glose.flac
/Volumes/О©megО± HD/Rip/Isabelle Olivier - In Between (2017) [LAME MP3 (VBR-new quality 0.0)]/06 - Isabelle Olivier - Glose.mp3
Track gain : -7.67 dB
Peak : 0.949585
CRC32 hash (test run) : D367B9AF
CRC32 hash : D367B9AF
CRC32 hash (skip zero) : 2A963B62
AccurateRip v1 signature : E4F0FB6C
AccurateRip v2 signature : 3558DF1F
->Track not present in AccurateRip database.
Statistics
Read error : 0
Jitter error (maybe fixed) : 0
Retry sector count : 0
Damaged sector count : 0
Track 07
Filename : /Volumes/О©megО± HD/Rip/Isabelle Olivier - In Between (2017) [FLAC (level 8)]/07 - Isabelle Olivier - Skylark.flac
/Volumes/О©megО± HD/Rip/Isabelle Olivier - In Between (2017) [LAME MP3 (VBR-new quality 0.0)]/07 - Isabelle Olivier - Skylark.mp3
Track gain : -7.31 dB
Peak : 0.914185
CRC32 hash (test run) : 990739D4
CRC32 hash : 990739D4
CRC32 hash (skip zero) : 864594CC
AccurateRip v1 signature : F40290FE
AccurateRip v2 signature : 84D53642
->Track not present in AccurateRip database.
Statistics
Read error : 0
Jitter error (maybe fixed) : 0
Retry sector count : 0
Damaged sector count : 0
Track 08
Filename : /Volumes/О©megО± HD/Rip/Isabelle Olivier - In Between (2017) [FLAC (level 8)]/08 - Isabelle Olivier - Barbes.flac
/Volumes/О©megО± HD/Rip/Isabelle Olivier - In Between (2017) [LAME MP3 (VBR-new quality 0.0)]/08 - Isabelle Olivier - Barbes.mp3
Track gain : -7.69 dB
Peak : 0.950684
CRC32 hash (test run) : A7BB4517
CRC32 hash : A7BB4517
CRC32 hash (skip zero) : 534A7931
AccurateRip v1 signature : AE69B328
AccurateRip v2 signature : 00D8F8A3
->Track not present in AccurateRip database.
Statistics
Read error : 0
Jitter error (maybe fixed) : 0
Retry sector count : 0
Damaged sector count : 0
Track 09
Filename : /Volumes/О©megО± HD/Rip/Isabelle Olivier - In Between (2017) [FLAC (level 8)]/09 - Isabelle Olivier - Monarque.flac
/Volumes/О©megО± HD/Rip/Isabelle Olivier - In Between (2017) [LAME MP3 (VBR-new quality 0.0)]/09 - Isabelle Olivier - Monarque.mp3
Track gain : -7.24 dB
Peak : 0.937286
CRC32 hash (test run) : 106BFB66
CRC32 hash : 106BFB66
CRC32 hash (skip zero) : 93593C31
AccurateRip v1 signature : 85472A8A
AccurateRip v2 signature : 1E851BCA
->Track not present in AccurateRip database.
Statistics
Read error : 0
Jitter error (maybe fixed) : 0
Retry sector count : 0
Damaged sector count : 0
Track 10
Filename : /Volumes/О©megО± HD/Rip/Isabelle Olivier - In Between (2017) [FLAC (level 8)]/10 - Isabelle Olivier - FГЄte De La Musique.flac
/Volumes/О©megО± HD/Rip/Isabelle Olivier - In Between (2017) [LAME MP3 (VBR-new quality 0.0)]/10 - Isabelle Olivier - FГЄte De La Musique.mp3
Track gain : -7.98 dB
Peak : 0.963470
CRC32 hash (test run) : 98E4287C
CRC32 hash : 98E4287C
CRC32 hash (skip zero) : D5619AB5
AccurateRip v1 signature : 4CBF6DCB
AccurateRip v2 signature : DE9C1EB0
->Track not present in AccurateRip database.
Statistics
Read error : 0
Jitter error (maybe fixed) : 0
Retry sector count : 0
Damaged sector count : 0
Track 11
Filename : /Volumes/О©megО± HD/Rip/Isabelle Olivier - In Between (2017) [FLAC (level 8)]/11 - Isabelle Olivier - Impressions.flac
/Volumes/О©megО± HD/Rip/Isabelle Olivier - In Between (2017) [LAME MP3 (VBR-new quality 0.0)]/11 - Isabelle Olivier - Impressions.mp3
Track gain : -8.40 dB
Peak : 0.921692
CRC32 hash (test run) : 0675B967
CRC32 hash : 0675B967
CRC32 hash (skip zero) : 210C80D4
AccurateRip v1 signature : 6DF312B6
AccurateRip v2 signature : 3C3AC85A
->Track not present in AccurateRip database.
Statistics
Read error : 0
Jitter error (maybe fixed) : 0
Retry sector count : 0
Damaged sector count : 0
Track 12
Filename : /Volumes/О©megО± HD/Rip/Isabelle Olivier - In Between (2017) [FLAC (level 8)]/12 - Isabelle Olivier - LisiГЁre.flac
/Volumes/О©megО± HD/Rip/Isabelle Olivier - In Between (2017) [LAME MP3 (VBR-new quality 0.0)]/12 - Isabelle Olivier - LisiГЁre.mp3
Track gain : -11.22 dB
Peak : 0.959412
CRC32 hash (test run) : A64A9580
CRC32 hash : A64A9580
CRC32 hash (skip zero) : F8660430
AccurateRip v1 signature : 72981E60
AccurateRip v2 signature : 960D5CA5
->Track not present in AccurateRip database.
Statistics
Read error : 0
Jitter error (maybe fixed) : 0
Retry sector count : 0
Damaged sector count : 0
Track 13
Filename : /Volumes/О©megО± HD/Rip/Isabelle Olivier - In Between (2017) [FLAC (level 8)]/13 - Isabelle Olivier - Pantoum.flac
/Volumes/О©megО± HD/Rip/Isabelle Olivier - In Between (2017) [LAME MP3 (VBR-new quality 0.0)]/13 - Isabelle Olivier - Pantoum.mp3
Track gain : -6.72 dB
Peak : 0.933472
CRC32 hash (test run) : 914A2BBE
CRC32 hash : 914A2BBE
CRC32 hash (skip zero) : 4E74AD00
AccurateRip v1 signature : 0C48AB40
AccurateRip v2 signature : DE2425A4
->Track not present in AccurateRip database.
Statistics
Read error : 0
Jitter error (maybe fixed) : 0
Retry sector count : 0
Damaged sector count : 0
Track 14
Filename : /Volumes/О©megО± HD/Rip/Isabelle Olivier - In Between (2017) [FLAC (level 8)]/14 - Isabelle Olivier - Rengas.flac
/Volumes/О©megО± HD/Rip/Isabelle Olivier - In Between (2017) [LAME MP3 (VBR-new quality 0.0)]/14 - Isabelle Olivier - Rengas.mp3
Track gain : -8.37 dB
Peak : 0.952148
CRC32 hash (test run) : 9255E8D0
CRC32 hash : 9255E8D0
CRC32 hash (skip zero) : AEAC5637
AccurateRip v1 signature : D82F52FC
AccurateRip v2 signature : A96EBA24
->Track not present in AccurateRip database.
Statistics
Read error : 0
Jitter error (maybe fixed) : 0
Retry sector count : 0
Damaged sector count : 0
Track 15
Filename : /Volumes/О©megО± HD/Rip/Isabelle Olivier - In Between (2017) [FLAC (level 8)]/15 - Isabelle Olivier - In Between.flac
/Volumes/О©megО± HD/Rip/Isabelle Olivier - In Between (2017) [LAME MP3 (VBR-new quality 0.0)]/15 - Isabelle Olivier - In Between.mp3
Track gain : -9.32 dB
Peak : 0.963654
CRC32 hash (test run) : 8DAC09DA
CRC32 hash : 8DAC09DA
CRC32 hash (skip zero) : 4CC6A365
AccurateRip v1 signature : 019C50FE
AccurateRip v2 signature : 1D4CE9FA
->Track not present in AccurateRip database.
Statistics
Read error : 0
Jitter error (maybe fixed) : 0
Retry sector count : 0
Damaged sector count : 0
No errors occurred
End of status report
-----BEGIN XLD SIGNATURE-----
Z3rrBd7IPZ6qb9mIIZySJhAjr2tsQvEmhpGKYStNlGC4IxwnFChZXhn4qQb9eqv4bUkExnMQeKC8WvDWi.0GI8W8RkV9nHl_DxHN.Zq
-----END XLD SIGNATURE-----
Содержание индексной карты (.CUE)
TITLE "In Between"
PERFORMER "Isabelle Olivier"
REM GENRE "Jazz"
REM DATE "2017"
REM DISCID C60D8F0F
REM REPLAYGAIN_ALBUM_GAIN -8.81 dB
REM REPLAYGAIN_ALBUM_PEAK 0.963654
FILE "01 - Intro.flac" WAVE
TRACK 01 AUDIO
TITLE "Intro"
ISRC DEAM81700147
REM REPLAYGAIN_TRACK_GAIN 0.75 dB
REM REPLAYGAIN_TRACK_PEAK 0.481903
INDEX 01 00:00:00
FILE "02 - Peruvian Lullaby.flac" WAVE
TRACK 02 AUDIO
TITLE "Peruvian Lullaby"
ISRC DEAM81700148
REM REPLAYGAIN_TRACK_GAIN -9.10 dB
REM REPLAYGAIN_TRACK_PEAK 0.905884
INDEX 01 00:00:00
FILE "03 - Potawatomi.flac" WAVE
TRACK 03 AUDIO
TITLE "Potawatomi"
ISRC DEAM81700149
REM REPLAYGAIN_TRACK_GAIN -7.65 dB
REM REPLAYGAIN_TRACK_PEAK 0.963593
INDEX 01 00:00:00
FILE "04 - A New World.flac" WAVE
TRACK 04 AUDIO
TITLE "A New World"
ISRC DEAM81700150
REM REPLAYGAIN_TRACK_GAIN -8.90 dB
REM REPLAYGAIN_TRACK_PEAK 0.924042
INDEX 01 00:00:00
FILE "05 - Comment ca va.flac" WAVE
TRACK 05 AUDIO
TITLE "Comment ca va?"
ISRC DEAM81700151
REM REPLAYGAIN_TRACK_GAIN -9.48 dB
REM REPLAYGAIN_TRACK_PEAK 0.944122
INDEX 01 00:00:00
FILE "06 - Glose.flac" WAVE
TRACK 06 AUDIO
TITLE "Glose"
ISRC DEAM81700152
REM REPLAYGAIN_TRACK_GAIN -7.67 dB
REM REPLAYGAIN_TRACK_PEAK 0.949585
INDEX 01 00:00:00
FILE "07 - Skylark.flac" WAVE
TRACK 07 AUDIO
TITLE "Skylark"
SONGWRITER "Hoagy Carmichael"
ISRC DEAM81700153
REM REPLAYGAIN_TRACK_GAIN -7.31 dB
REM REPLAYGAIN_TRACK_PEAK 0.914185
INDEX 01 00:00:00
FILE "08 - Barbes.flac" WAVE
TRACK 08 AUDIO
TITLE "Barbes"
ISRC DEAM81700154
REM REPLAYGAIN_TRACK_GAIN -7.69 dB
REM REPLAYGAIN_TRACK_PEAK 0.950684
INDEX 01 00:00:00
FILE "09 - Monarque.flac" WAVE
TRACK 09 AUDIO
TITLE "Monarque"
ISRC DEAM81700155
REM REPLAYGAIN_TRACK_GAIN -7.24 dB
REM REPLAYGAIN_TRACK_PEAK 0.937286
INDEX 01 00:00:00
FILE "10 - Fete de la musique.flac" WAVE
TRACK 10 AUDIO
TITLE "Fete de la musique"
ISRC DEAM81700156
REM REPLAYGAIN_TRACK_GAIN -7.98 dB
REM REPLAYGAIN_TRACK_PEAK 0.963470
INDEX 01 00:00:00
FILE "11 - Impressions.flac" WAVE
TRACK 11 AUDIO
TITLE "Impressions"
ISRC DEAM81700157
REM REPLAYGAIN_TRACK_GAIN -8.40 dB
REM REPLAYGAIN_TRACK_PEAK 0.921692
INDEX 01 00:00:00
FILE "12 - Lisiere.flac" WAVE
TRACK 12 AUDIO
TITLE "Lisiere"
ISRC DEAM81700158
REM REPLAYGAIN_TRACK_GAIN -11.22 dB
REM REPLAYGAIN_TRACK_PEAK 0.959412
INDEX 01 00:00:00
FILE "13 - Pantoum.flac" WAVE
TRACK 13 AUDIO
TITLE "Pantoum"
ISRC DEAM81700159
REM REPLAYGAIN_TRACK_GAIN -6.72 dB
REM REPLAYGAIN_TRACK_PEAK 0.933472
INDEX 01 00:00:00
FILE "14 - Rengas.flac" WAVE
TRACK 14 AUDIO
TITLE "Rengas"
ISRC DEAM81700160
REM REPLAYGAIN_TRACK_GAIN -8.37 dB
REM REPLAYGAIN_TRACK_PEAK 0.952148
INDEX 01 00:00:00
FILE "15 - In Between.flac" WAVE
TRACK 15 AUDIO
TITLE "In Between"
ISRC DEAM81700161
REM REPLAYGAIN_TRACK_GAIN -9.32 dB
REM REPLAYGAIN_TRACK_PEAK 0.963654
INDEX 01 00:00:00
Лог проверки качества
-----------------------
DON'T MODIFY THIS FILE
-----------------------
PERFORMER: auCDtect Task Manager, ver. 1.6.0 RC1 build 1.6.0.1
Copyright (c) 2008-2010 y-soft. All rights reserved
http://y-soft.org
ANALYZER: auCDtect: CD records authenticity detector, version 0.8.2
Copyright (c) 2004 Oleg Berngardt. All rights reserved.
Copyright (c) 2004 Alexander Djourik. All rights reserved.
FILE: 15 - In Between.flac
Size: 35141874 Hash: E4FAF022F530B2FB7B2DEF55C391AE4F Accuracy: -m0
Conclusion: CDDA 100%
Signature: A2582512B6C196A8380352F1278887F8761AC251
FILE: 14 - Rengas.flac
Size: 16817214 Hash: 351B5FE68419339EF9798408A51CA9AA Accuracy: -m0
Conclusion: CDDA 100%
Signature: E094603505296E8B53612C0C9D4C87B9CA3CCBBC
FILE: 13 - Pantoum.flac
Size: 12027742 Hash: 0A5BCF818D0B5EB5312F02B6C70CA745 Accuracy: -m0
Conclusion: CDDA 86%
Signature: 910E6CD3E433EC8361D255B90B4FF2696215200C
FILE: 12 - Lisiere.flac
Size: 22909098 Hash: CF395ADA37BB1087B612EE2D03E03E48 Accuracy: -m0
Conclusion: CDDA 100%
Signature: 5AB2905A5413BD0E5FADE99DA907EDE15E844B2A
FILE: 11 - Impressions.flac
Size: 14662170 Hash: BA030EE09BBE396D8595E6891A14BF9F Accuracy: -m0
Conclusion: CDDA 58%
Signature: 92B910C30BE74EBB0C85835F9DD2CE7B7A820C85
FILE: 10 - Fete de la musique.flac
Size: 17755026 Hash: 7DAF19CBCBBCAAB59BA527F1D9AEA6E4 Accuracy: -m0
Conclusion: CDDA 100%
Signature: 11F47E99B353E3ABD91277512FE77C4808107368
FILE: 09 - Monarque.flac
Size: 14898760 Hash: 51C5F1C42F7DFCA03C8E91D3469080FE Accuracy: -m0
Conclusion: CDDA 100%
Signature: 169EFEA31223C207ACEB0C3BCF171BE600B53E91
FILE: 08 - Barbes.flac
Size: 21757891 Hash: 61C18ED2BAA3CA894586A9DFD16C3ED6 Accuracy: -m0
Conclusion: CDDA 99%
Signature: 82D6C7BA2478BFD68074FBA68377FC8915248162
FILE: 07 - Skylark.flac
Size: 11411223 Hash: 08C975BEFC9BB4647D1DF1BC128517D7 Accuracy: -m0
Conclusion: CDDA 100%
Signature: AB9B7FE3769C154A15C6A3525AC2EACCBD412603
FILE: 06 - Glose.flac
Size: 60160703 Hash: BB16A0DA110A22D3F525923694AA9481 Accuracy: -m0
Conclusion: CDDA 100%
Signature: 5705008FAB3D4CDF4F67FC6BBFB4AB99634919C9
FILE: 05 - Comment ca va.flac
Size: 27286774 Hash: 380A39F9B7D638E7E9F80A5AAFD65A19 Accuracy: -m0
Conclusion: CDDA 100%
Signature: 1501CE772A1BAFD2FA29FB50C2E8392403270256
FILE: 04 - A New World.flac
Size: 19389240 Hash: C5E600E7493A71B85D0281862A8169B5 Accuracy: -m0
Conclusion: CDDA 43%
Signature: 30405CDB12EAD770B6A54D4CB9DAE8C97DF036DC
FILE: 03 - Potawatomi.flac
Size: 32922856 Hash: 2B4BBE86E73066C2D046B02838DA588C Accuracy: -m0
Conclusion: CDDA 100%
Signature: 4C09FF5E973D4C70056B8EE9518223603526C141
FILE: 02 - Peruvian Lullaby.flac
Size: 12484256 Hash: E117DC361C08BC2C823261ACC070EF22 Accuracy: -m0
Conclusion: CDDA 87%
Signature: BC1BEFB4C25AAD26C2A7959393DAF3DE2D478CD1
FILE: 01 - Intro.flac
Size: 7412602 Hash: A6E444176A6F74BD68B82322A5DEBCBA Accuracy: -m0
Conclusion: CDDA 100%
Signature: 4DE3AEA9AA01C522F4820DFDA6D971740AFD5343
Приватный:
Нет (DHT включён)
Размер:
312.43 Мб (327,609,674 байт) » файлов: 23
Участники:
0 раздают, 0 качают (0 участников всего)
Внешние участники:
2 раздают, 1 качают (3 участников всего) [ Обновить ]
Есть вопросы - пишите личное сообщение пользователю M0p94ok.
03:06
7
Нет комментариев. Ваш будет первым!