Вы используете незарегистрированную версию компонента "Вкладки"!

Поиск

2017 Houston Person - Rain Or Shine {HighNote} [24-44.1]

2017 Houston Person - Rain Or Shine {HighNote} [24-44.1]
Издатель (лейбл):
Доп. инфо:

Формат записи/Источник записи: [TR24][OF]
Наличие водяных знаков: Нет
Год издания/переиздания диска: 2017
Продолжительность: 56:20
Наличие сканов в содержимом раздачи: Буклет PDF
Источник (релизер): AcousticSounds

Контейнер: FLAC (*.flac)
Тип рипа: tracks
Разрядность: 24/44,1
Формат: PCM
Количество каналов: 2.0

Лог проверки качества
foobar2000 1.4 / Dynamic Range Meter 1.1.1
log date: 2018-11-05 19:25:40

--------------------------------------------------------------------------------
Analyzed: Houston Person / Rain or Shine
--------------------------------------------------------------------------------

DR         Peak         RMS     Duration Track
--------------------------------------------------------------------------------
DR11      -0.80 dB   -14.43 dB      6:24 01-Come Rain or Come Shine
DR12      -0.74 dB   -13.97 dB      7:05 02-132nd and Madison
DR11      -0.74 dB   -14.44 dB      6:59 03-Everything Must Change
DR11      -0.74 dB   -13.56 dB      6:19 04-Learnin' the Blues
DR12      -0.80 dB   -13.84 dB      5:28 05-I Wonder Where Our Love Has Gone
DR12      -0.80 dB   -14.14 dB      7:13 06-Soupbone
DR13      -0.80 dB   -15.04 dB      5:09 07-Never Let Me Go
DR12      -0.74 dB   -14.06 dB      5:43 08-Our Day Will Come
DR13      -0.80 dB   -15.91 dB      6:00 09-Danny Boy
--------------------------------------------------------------------------------

Number of tracks:  9
Official DR value: DR12

Samplerate:        44100 Hz
Channels:          2
Bits per sample:   24
Bitrate:           1381 kbps
Codec:             FLAC
================================================================================
Any questions - support@pro-jazz.com. Есть вопросы - support@pro-jazz.com
12:56
359
Нет комментариев. Ваш будет первым!