Поиск

2017 Eric Reed - A Light in Darkness {WJ3 WJ31020} [CD]

2017 Eric Reed - A Light in Darkness {WJ3 WJ31020} [CD]
Страна-производитель диска (релиза):
USA
Дата записи диска:
9 января и 30 июня 2017 (#8)
Место записи:
Avatar Studios и Systems Two Studios, Brooklyn, NY
Дата издания диска:
2017
Издатель (лейбл):
Номер по каталогу:
WJ31020
Носитель:
CD
Тип рипа:
tracks+.cue
Битрейт аудио:
lossless
Время звучания:
46:42
Наличие сканов:
нет
Релизёр (источник):
aXiom01
Треклист:

01. The Way to Love (Reed) - 2:56
02. Calvary (Kirkpatrick-Hussey, Trad.) - 10:31
03. The Promised Land (Reed) - 5:00
04. Beauty for Ashes (Reed) - 7:52
05. Hope in View (Reed) - 3:34
06. Shine (Williams-Reed-Ross) - 3:42
07. Garden of Sorrow (Reed) - 7:44
08. Yesterday ~ Yesterdays (McCartney-Lennon, Kern-Harbach) - 5:23

Лог создания рипа
Exact Audio Copy V1.3 from 2. September 2016

EAC extraction logfile from 11. October 2018, 18:47

Eric Reed / A Light In Darkness

Used drive  : ATAPI   iHBS112   2   Adapter: 1  ID: 0

Read mode               : Secure
Utilize accurate stream : Yes
Defeat audio cache      : Yes
Make use of C2 pointers : No

Read offset correction                      : 6
Overread into Lead-In and Lead-Out          : No
Fill up missing offset samples with silence : Yes
Delete leading and trailing silent blocks   : No
Null samples used in CRC calculations       : Yes
Used interface                              : Native Win32 interface for Win NT & 2000
Gap handling                                : Appended to previous track

Used output format              : User Defined Encoder
Selected bitrate                : 1024 kBit/s
Quality                         : High
Add ID3 tag                     : No
Command line compressor         : C:\Program Files (x86)\Exact Audio Copy\Flac\flac.exe
Additional command line options : -8 -V -T "ARTIST=%artist%" -T "TITLE=%title%" -T "ALBUM=%albumtitle%" -T "DATE=%year%" -T "TRACKNUMBER=%tracknr%" -T "GENRE=%genre%" -T "PERFORMER=%albuminterpret%" -T "COMPOSER=%composer%" %haslyrics%--tag-from-file=LYRICS="%lyricsfile%"%haslyrics% -T "ALBUMARTIST=%albumartist%" -T "DISCNUMBER=%cdnumber%" -T "TOTALDISCS=%totalcds%" -T "TOTALTRACKS=%numtracks%" -T "COMMENT=%comment%" %source% -o %dest%

TOC of the extracted CD

     Track |   Start  |  Length  | Start sector | End sector
    ---------------------------------------------------------
        1  |  0:00.00 |  2:56.12 |         0    |    13211
        2  |  2:56.12 | 10:30.68 |     13212    |    60529
        3  | 13:27.05 |  4:59.70 |     60530    |    83024
        4  | 18:27.00 |  7:51.55 |     83025    |   118404
        5  | 26:18.55 |  3:33.61 |    118405    |   134440
        6  | 29:52.41 |  3:41.46 |    134441    |   151061
        7  | 33:34.12 |  7:43.64 |    151062    |   185850
        8  | 41:18.01 |  5:23.09 |    185851    |   210084

Track  1

     Filename H:\Eric Reed\Eric Reed - 2017 - A Light In Darkness\01 - The Way To Love.wav

     Pre-gap length  0:00:02.00

     Peak level 96.6 %
     Extraction speed 4.2 X
     Track quality 100.0 %
     Test CRC D437A729
     Copy CRC D437A729
     Track not present in AccurateRip database
     Copy OK

Track  2

     Filename H:\Eric Reed\Eric Reed - 2017 - A Light In Darkness\02 - Calvary.wav

     Pre-gap length  0:00:01.00

     Peak level 96.3 %
     Extraction speed 5.7 X
     Track quality 100.0 %
     Test CRC 8648B023
     Copy CRC 8648B023
     Track not present in AccurateRip database
     Copy OK

Track  3

     Filename H:\Eric Reed\Eric Reed - 2017 - A Light In Darkness\03 - The Promised Land.wav

     Pre-gap length  0:00:01.00

     Peak level 96.5 %
     Extraction speed 6.1 X
     Track quality 100.0 %
     Test CRC D3BCDB40
     Copy CRC D3BCDB40
     Track not present in AccurateRip database
     Copy OK

Track  4

     Filename H:\Eric Reed\Eric Reed - 2017 - A Light In Darkness\04 - Beauty For Ashes.wav

     Pre-gap length  0:00:01.00

     Peak level 95.4 %
     Extraction speed 7.0 X
     Track quality 100.0 %
     Test CRC 547B1A10
     Copy CRC 547B1A10
     Track not present in AccurateRip database
     Copy OK

Track  5

     Filename H:\Eric Reed\Eric Reed - 2017 - A Light In Darkness\05 - Hope In View.wav

     Pre-gap length  0:00:01.00

     Peak level 92.0 %
     Extraction speed 5.5 X
     Track quality 99.9 %
     Test CRC 941D625E
     Copy CRC 941D625E
     Track not present in AccurateRip database
     Copy OK

Track  6

     Filename H:\Eric Reed\Eric Reed - 2017 - A Light In Darkness\06 - Shine.wav

     Pre-gap length  0:00:01.00

     Peak level 89.0 %
     Extraction speed 7.1 X
     Track quality 100.0 %
     Test CRC 2CA1C6D6
     Copy CRC 2CA1C6D6
     Track not present in AccurateRip database
     Copy OK

Track  7

     Filename H:\Eric Reed\Eric Reed - 2017 - A Light In Darkness\07 - Garden Of Sorrow.wav

     Pre-gap length  0:00:01.00

     Peak level 96.3 %
     Extraction speed 8.1 X
     Track quality 100.0 %
     Test CRC EF29363A
     Copy CRC EF29363A
     Track not present in AccurateRip database
     Copy OK

Track  8

     Filename H:\Eric Reed\Eric Reed - 2017 - A Light In Darkness\08 - Yesterday - Yesterdays.wav

     Pre-gap length  0:00:03.00

     Peak level 83.0 %
     Extraction speed 8.3 X
     Track quality 100.0 %
     Test CRC CF7C8392
     Copy CRC CF7C8392
     Track not present in AccurateRip database
     Copy OK

None of the tracks are present in the AccurateRip database

No errors occurred

End of status report

---- CUETools DB Plugin V2.1.6

[CTDB TOCID: A234Mk20tXqKQH2dHfD6aBUitv4-] found
Submit result: A234Mk20tXqKQH2dHfD6aBUitv4- has been confirmed
Track | CTDB Status
  1   | (2/2) Accurately ripped
  2   | (2/2) Accurately ripped
  3   | (2/2) Accurately ripped
  4   | (2/2) Accurately ripped
  5   | (2/2) Accurately ripped
  6   | (2/2) Accurately ripped
  7   | (2/2) Accurately ripped
  8   | (2/2) Accurately ripped

==== Log checksum 64BD3808DFE0286BB7A70DAE6C2FE6EF64AEE6128A9862105F75366B69912072 ====
Содержание индексной карты (.CUE)
REM GENRE Jazz
REM DATE 2017
REM DISCID 680AF108
REM COMMENT "ExactAudioCopy v1.3"
PERFORMER "Eric Reed"
TITLE "A Light in Darkness"
FILE "01 - The Way to Love.wav" WAVE
  TRACK 01 AUDIO
    TITLE "The Way to Love"
    PERFORMER "Eric Reed"
    ISRC QMAAK1792603
    INDEX 01 00:00:00
  TRACK 02 AUDIO
    TITLE "Calvary"
    PERFORMER "Eric Reed"
    ISRC QMAAK1792604
    INDEX 00 02:55:12
FILE "02 - Calvary.wav" WAVE
    INDEX 01 00:00:00
  TRACK 03 AUDIO
    TITLE "The Promised Land"
    PERFORMER "Eric Reed"
    ISRC QMAAK1792605
    INDEX 00 10:29:68
FILE "03 - The Promised Land.wav" WAVE
    INDEX 01 00:00:00
  TRACK 04 AUDIO
    TITLE "Beauty for Ashes"
    PERFORMER "Eric Reed"
    ISRC QMAAK1792606
    INDEX 00 04:58:70
FILE "04 - Beauty for Ashes.wav" WAVE
    INDEX 01 00:00:00
  TRACK 05 AUDIO
    TITLE "Hope in View"
    PERFORMER "Eric Reed"
    ISRC QMAAK1792607
    INDEX 00 07:50:55
FILE "05 - Hope in View.wav" WAVE
    INDEX 01 00:00:00
  TRACK 06 AUDIO
    TITLE "Shine"
    PERFORMER "Eric Reed"
    ISRC QMAAK1792608
    INDEX 00 03:32:61
FILE "06 - Shine.wav" WAVE
    INDEX 01 00:00:00
  TRACK 07 AUDIO
    TITLE "Garden of Sorrow"
    PERFORMER "Eric Reed"
    ISRC QMAAK1792609
    INDEX 00 03:40:46
FILE "07 - Garden of Sorrow.wav" WAVE
    INDEX 01 00:00:00
  TRACK 08 AUDIO
    TITLE "Yesterday - Yesterdays"
    PERFORMER "Eric Reed"
    ISRC QMAAK1792610
    INDEX 00 07:40:64
FILE "08 - Yesterday - Yesterdays.wav" WAVE
    INDEX 01 00:00:00
Лог проверки качества
[CUETools log; Date: 24.10.2018 20:36:06; Version: 2.1.5]
[CTDB TOCID: A234Mk20tXqKQH2dHfD6aBUitv4-] found.
Track | CTDB Status
  1   | (3/3) Accurately ripped
  2   | (3/3) Accurately ripped
  3   | (3/3) Accurately ripped
  4   | (3/3) Accurately ripped
  5   | (3/3) Accurately ripped
  6   | (3/3) Accurately ripped
  7   | (3/3) Accurately ripped
  8   | (3/3) Accurately ripped
[AccurateRip ID: 000e98c3-006141a1-680af108] disk not present in database.

Track Peak [ CRC32  ] [W/O NULL] [  LOG   ]
 --   96,6 [886C0BD3] [DF2C0ACD]
 01   96,6 [D437A729] [DEF7E97F]   CRC32
 02   96,3 [8648B023] [41354041]   CRC32
 03   96,5 [D3BCDB40] [092CA08C]   CRC32
 04   95,4 [547B1A10] [78EB0903]   CRC32
 05   92,0 [941D625E] [EF1B0B54]   CRC32
 06   89,0 [2CA1C6D6] [491F10F1]   CRC32
 07   96,3 [EF29363A] [F114C768]   CRC32
 08   83,0 [CF7C8392] [8AD2EB03]   CRC32
16:16
17
Нет комментариев. Ваш будет первым!