Поиск

2017 Duke & Dukies - Djangoholics {Self Released} [CD]

2017 Duke & Dukies - Djangoholics {Self Released} [CD]
Треклист:

1. After You've Gone 02:49
2. Everyboday Loves My Baby 02:46
3. Bossa Di Jetti 03:43
4. Bei Dir War Es Immer So Schön 03:26
5. La Roulotte De L'Enfer 03:08
6. Les Deux Guitares 02:59 info buy track
7. Occidental Swing 02:49
8. Clockwise 03:11
9. Gloomy Sunday 03:23
10. Swing Gitan 03:17
11. I've Found A New Baby 03:19
12. Big Brother 03:48
13. Double Jeu 02:54
14. Puttin' On The Ritz 03:28

 
Лог CUETools
[CUETools log; Date: 1/19/2019 2:09:05 PM; Version: 2.1.5]
[CTDB TOCID: AZNXp77bl0n1SX8i8BCxvLAsJeQ-] found.
Track | CTDB Status
  1   | (1/1) Accurately ripped
  2   | (1/1) Accurately ripped
  3   | (1/1) Accurately ripped
  4   | (1/1) Accurately ripped
  5   | (1/1) Accurately ripped
  6   | (1/1) Accurately ripped
  7   | (1/1) Accurately ripped
  8   | (1/1) Accurately ripped
  9   | (1/1) Accurately ripped
 10   | (1/1) Accurately ripped
 11   | (1/1) Accurately ripped
 12   | (1/1) Accurately ripped
 13   | (1/1) Accurately ripped
 14   | (1/1) Accurately ripped
[AccurateRip ID: 0016ce24-00f47f9e-d90a920e] disk not present in database.
Track Peak [ CRC32  ] [W/O NULL]
 --   96.6 [EC5BDFE9] [3C31CBD3]
 01   96.0 [A617C953] [DB0C67AA]
 02   95.5 [C82CF16E] [AF1385AB]
 03   96.6 [558581DB] [E46A3E5E]
 04   96.6 [3E56B3F2] [5F8DB402]
 05   96.6 [86CC854F] [68901C63]
 06   96.6 [ADE47448] [F1FC57B7]
 07   96.6 [B70ED2F5] [99612BE8]
 08   96.0 [46C6460C] [F272513D]
 09   96.6 [8D707D72] [27EE86AA]
 10   96.3 [3A1565D7] [1D90EC16]
 11   96.6 [63F9F422] [AD73FFF5]
 12   96.0 [FC7A9ACC] [2ECC9A4A]
 13   96.6 [AA148C44] [453EB2AB]
 14   96.6 [E6993704] [5CE2CE1A]
 
Замер динамического диапазона
foobar2000 1.3.10 / Замер динамического диапазона (DR) 1.1.1
Дата отчёта:  2019-01-19 14:17:49
--------------------------------------------------------------------------------
Анализ:   Duke & Dukies / Djangoholics
--------------------------------------------------------------------------------
DR         Пики         RMS           Продолжительность трека
--------------------------------------------------------------------------------
DR9       -0.35 дБ   -10.35 дБ      2:49 01-After you've gone
DR9       -0.40 дБ   -10.00 дБ      2:46 02-Everybody loves my Baby
DR9       -0.30 дБ   -10.66 дБ      3:44 03-Bossa di Jetti
DR9       -0.30 дБ   -10.70 дБ      3:27 04-Bei dir war es immer so schön
DR8       -0.30 дБ    -9.84 дБ      3:08 05-La Roulette de L'Enfer
DR9       -0.30 дБ   -10.45 дБ      2:59 06-Les Deux Guitars
DR9       -0.30 дБ   -10.50 дБ      2:49 07-Occidental Swing
DR9       -0.35 дБ   -10.28 дБ      3:11 08-Clockwise
DR10      -0.30 дБ   -11.79 дБ      3:23 09-Gloomy Sunday
DR8       -0.32 дБ    -9.55 дБ      3:18 10-Swing Gitan
DR9       -0.30 дБ    -9.86 дБ      3:19 11-I've found a new Baby
DR10      -0.35 дБ   -11.11 дБ      3:49 12-Big Brother
DR8       -0.30 дБ    -9.73 дБ      2:55 13-Double Jeu
DR8       -0.30 дБ    -9.51 дБ      3:29 14-Puttin' on the Ritz
--------------------------------------------------------------------------------
Количество треков: 14
Реальные значения DR: DR9
Частота:   44100 Гц
Каналов:   2
Разрядность:   16
Битрейт:   827 кбит/с
Кодек:   FLAC
================================================================================
Состав:
  • Tim Holzhäuser — guitar solo
  • Benjamin Dau — guitar solo
  • Tobias Günnemann — violin
  • Fridtjof Eschen — Rhythm Guitar & Vocal
  • Daniel Gottlieb — Contrabass

arranged and produced by Duke & Dukies
Recorded by Benjamin Dau at Octopus-Audio, mixed and mastered by Karsten Böttcher
All songs arranged and produced by Duke & Dukies, Recorded by Benjamin Dau at Octopus-Audio, mixed and mastered by Karsten Böttcher

Жанр: Jazz Manouche, Swing, Gypsy Jazz
Носитель: CD (Digipack)
Страна-производитель диска (релиза): Germany
Год издания оригинала: 2017
Издатель (лейбл): Self Released
Номер по каталогу: None
Страна исполнителя (группы) : Germany
Аудио кодек: FLAC (*.flac)
Тип рипа: (tracks + .cue)
Битрейт аудио: lossless
Наличие сканов в содержимом раздачи: full scans
Продолжительность: 45:06
Источник (релизер): REDacted

Лог создания рипа
X Lossless Decoder version 20181019 (151.1)

XLD extraction logfile from 2018-11-25 00:07:04 +0100

Duke & Dukies / Djangoholics

Used drive : MATSHITA DVD-R   UJ-868 (revision KB19)
Media type : Pressed CD

Ripper mode             : XLD Secure Ripper
Disable audio cache     : OK for the drive with a cache less than 1375KiB
Make use of C2 pointers : NO
Read offset correction  : 102
Max retry count         : 20
Gap status              : Analyzed, Appended (except HTOA)

TOC of the extracted CD
     Track |   Start  |  Length  | Start sector | End sector
    ---------------------------------------------------------
        1  | 00:00:00 | 02:49:03 |         0    |    12677
        2  | 02:49:03 | 02:46:11 |     12678    |    25138
        3  | 05:35:14 | 03:43:71 |     25139    |    41934
        4  | 09:19:10 | 03:26:72 |     41935    |    57456
        5  | 12:46:07 | 03:08:26 |     57457    |    71582
        6  | 15:54:33 | 02:59:19 |     71583    |    85026
        7  | 18:53:52 | 02:49:09 |     85027    |    97710
        8  | 21:42:61 | 03:11:17 |     97711    |   112052
        9  | 24:54:03 | 03:23:20 |    112053    |   127297
       10  | 28:17:23 | 03:17:56 |    127298    |   142128
       11  | 31:35:04 | 03:19:05 |    142129    |   157058
       12  | 34:54:09 | 03:48:51 |    157059    |   174209
       13  | 38:42:60 | 02:54:49 |    174210    |   187308
       14  | 41:37:34 | 03:28:67 |    187309    |   202975

AccurateRip Summary
    Disc not found in AccurateRip DB.

All Tracks
    Album gain               : -7.07 dB
    Peak                     : 0.966003
    Statistics
        Read error                           : 0
        Jitter error (maybe fixed)           : 0
        Retry sector count                   : 0
        Damaged sector count                 : 0

Track 01
    Filename : /rip/Duke & Dukies - Djangoholics (2017) [LAME MP3 (VBR-new quality 0.0)]/01 After you've gone.mp3
               /rip/Duke & Dukies - Djangoholics (2017) [FLAC (level 8)]/01 After you've gone.flac
    Pre-gap length : 00:02:00

    Track gain               : -7.21 dB
    Peak                     : 0.960480
    CRC32 hash (test run)    : A617C953
    CRC32 hash               : A617C953
    CRC32 hash (skip zero)   : DB0C67AA
    AccurateRip v1 signature : 58FCC3BE
    AccurateRip v2 signature : BBBB8D05
        ->Track not present in AccurateRip database.
    Statistics
        Read error                           : 0
        Jitter error (maybe fixed)           : 0
        Retry sector count                   : 0
        Damaged sector count                 : 0

Track 02
    Filename : /rip/Duke & Dukies - Djangoholics (2017) [LAME MP3 (VBR-new quality 0.0)]/02 Everybody loves my Baby.mp3
               /rip/Duke & Dukies - Djangoholics (2017) [FLAC (level 8)]/02 Everybody loves my Baby.flac

    Track gain               : -7.39 dB
    Peak                     : 0.955353
    CRC32 hash (test run)    : C82CF16E
    CRC32 hash               : C82CF16E
    CRC32 hash (skip zero)   : AF1385AB
    AccurateRip v1 signature : 1BA6C21C
    AccurateRip v2 signature : ADF7DFAB
        ->Track not present in AccurateRip database.
    Statistics
        Read error                           : 0
        Jitter error (maybe fixed)           : 0
        Retry sector count                   : 0
        Damaged sector count                 : 0

Track 03
    Filename : /rip/Duke & Dukies - Djangoholics (2017) [LAME MP3 (VBR-new quality 0.0)]/03 Bossa di Jetti.mp3
               /rip/Duke & Dukies - Djangoholics (2017) [FLAC (level 8)]/03 Bossa di Jetti.flac

    Track gain               : -6.83 dB
    Peak                     : 0.966003
    CRC32 hash (test run)    : 558581DB
    CRC32 hash               : 558581DB
    CRC32 hash (skip zero)   : E46A3E5E
    AccurateRip v1 signature : 7FE936A0
    AccurateRip v2 signature : F330F1FF
        ->Track not present in AccurateRip database.
    Statistics
        Read error                           : 0
        Jitter error (maybe fixed)           : 0
        Retry sector count                   : 0
        Damaged sector count                 : 0

Track 04
    Filename : /rip/Duke & Dukies - Djangoholics (2017) [LAME MP3 (VBR-new quality 0.0)]/04 Bei dir war es immer so schön.mp3
               /rip/Duke & Dukies - Djangoholics (2017) [FLAC (level 8)]/04 Bei dir war es immer so schön.flac

    Track gain               : -6.65 dB
    Peak                     : 0.966003
    CRC32 hash (test run)    : 3E56B3F2
    CRC32 hash               : 3E56B3F2
    CRC32 hash (skip zero)   : 5F8DB402
    AccurateRip v1 signature : 2B158A81
    AccurateRip v2 signature : BB6BFBED
        ->Track not present in AccurateRip database.
    Statistics
        Read error                           : 0
        Jitter error (maybe fixed)           : 0
        Retry sector count                   : 0
        Damaged sector count                 : 0

Track 05
    Filename : /rip/Duke & Dukies - Djangoholics (2017) [LAME MP3 (VBR-new quality 0.0)]/05 La Roulette de L'Enfer.mp3
               /rip/Duke & Dukies - Djangoholics (2017) [FLAC (level 8)]/05 La Roulette de L'Enfer.flac

    Track gain               : -7.59 dB
    Peak                     : 0.966003
    CRC32 hash (test run)    : 86CC854F
    CRC32 hash               : 86CC854F
    CRC32 hash (skip zero)   : 68901C63
    AccurateRip v1 signature : 45F739C5
    AccurateRip v2 signature : 15A0753B
        ->Track not present in AccurateRip database.
    Statistics
        Read error                           : 0
        Jitter error (maybe fixed)           : 0
        Retry sector count                   : 0
        Damaged sector count                 : 0

Track 06
    Filename : /rip/Duke & Dukies - Djangoholics (2017) [LAME MP3 (VBR-new quality 0.0)]/06 Les Deux Guitars.mp3
               /rip/Duke & Dukies - Djangoholics (2017) [FLAC (level 8)]/06 Les Deux Guitars.flac

    Track gain               : -6.94 dB
    Peak                     : 0.966003
    CRC32 hash (test run)    : ADE47448
    CRC32 hash               : ADE47448
    CRC32 hash (skip zero)   : F1FC57B7
    AccurateRip v1 signature : 732C8B5F
    AccurateRip v2 signature : 0FD1DFCD
        ->Track not present in AccurateRip database.
    Statistics
        Read error                           : 0
        Jitter error (maybe fixed)           : 0
        Retry sector count                   : 0
        Damaged sector count                 : 0

Track 07
    Filename : /rip/Duke & Dukies - Djangoholics (2017) [LAME MP3 (VBR-new quality 0.0)]/07 Occidental Swing.mp3
               /rip/Duke & Dukies - Djangoholics (2017) [FLAC (level 8)]/07 Occidental Swing.flac

    Track gain               : -6.77 dB
    Peak                     : 0.966003
    CRC32 hash (test run)    : B70ED2F5
    CRC32 hash               : B70ED2F5
    CRC32 hash (skip zero)   : 99612BE8
    AccurateRip v1 signature : A6BFBE69
    AccurateRip v2 signature : 73E90941
        ->Track not present in AccurateRip database.
    Statistics
        Read error                           : 0
        Jitter error (maybe fixed)           : 0
        Retry sector count                   : 0
        Damaged sector count                 : 0

Track 08
    Filename : /rip/Duke & Dukies - Djangoholics (2017) [LAME MP3 (VBR-new quality 0.0)]/08 Clockwise.mp3
               /rip/Duke & Dukies - Djangoholics (2017) [FLAC (level 8)]/08 Clockwise.flac

    Track gain               : -7.09 dB
    Peak                     : 0.960602
    CRC32 hash (test run)    : 46C6460C
    CRC32 hash               : 46C6460C
    CRC32 hash (skip zero)   : F272513D
    AccurateRip v1 signature : B3F65ABB
    AccurateRip v2 signature : C9E2096E
        ->Track not present in AccurateRip database.
    Statistics
        Read error                           : 0
        Jitter error (maybe fixed)           : 0
        Retry sector count                   : 0
        Damaged sector count                 : 0

Track 09
    Filename : /rip/Duke & Dukies - Djangoholics (2017) [LAME MP3 (VBR-new quality 0.0)]/09 Gloomy Sunday.mp3
               /rip/Duke & Dukies - Djangoholics (2017) [FLAC (level 8)]/09 Gloomy Sunday.flac

    Track gain               : -5.44 dB
    Peak                     : 0.965973
    CRC32 hash (test run)    : 8D707D72
    CRC32 hash               : 8D707D72
    CRC32 hash (skip zero)   : 27EE86AA
    AccurateRip v1 signature : 8FE42387
    AccurateRip v2 signature : 9CC53608
        ->Track not present in AccurateRip database.
    Statistics
        Read error                           : 0
        Jitter error (maybe fixed)           : 0
        Retry sector count                   : 0
        Damaged sector count                 : 0

Track 10
    Filename : /rip/Duke & Dukies - Djangoholics (2017) [LAME MP3 (VBR-new quality 0.0)]/10 Swing Gitan.mp3
               /rip/Duke & Dukies - Djangoholics (2017) [FLAC (level 8)]/10 Swing Gitan.flac

    Track gain               : -7.63 dB
    Peak                     : 0.963745
    CRC32 hash (test run)    : 3A1565D7
    CRC32 hash               : 3A1565D7
    CRC32 hash (skip zero)   : 1D90EC16
    AccurateRip v1 signature : 9E5084B0
    AccurateRip v2 signature : 3E05F444
        ->Track not present in AccurateRip database.
    Statistics
        Read error                           : 0
        Jitter error (maybe fixed)           : 0
        Retry sector count                   : 0
        Damaged sector count                 : 0

Track 11
    Filename : /rip/Duke & Dukies - Djangoholics (2017) [LAME MP3 (VBR-new quality 0.0)]/11 I've found a new Baby.mp3
               /rip/Duke & Dukies - Djangoholics (2017) [FLAC (level 8)]/11 I've found a new Baby.flac

    Track gain               : -7.69 dB
    Peak                     : 0.966003
    CRC32 hash (test run)    : 63F9F422
    CRC32 hash               : 63F9F422
    CRC32 hash (skip zero)   : AD73FFF5
    AccurateRip v1 signature : 1054FD43
    AccurateRip v2 signature : 9C86296E
        ->Track not present in AccurateRip database.
    Statistics
        Read error                           : 0
        Jitter error (maybe fixed)           : 0
        Retry sector count                   : 0
        Damaged sector count                 : 0

Track 12
    Filename : /rip/Duke & Dukies - Djangoholics (2017) [LAME MP3 (VBR-new quality 0.0)]/12 Big Brother.mp3
               /rip/Duke & Dukies - Djangoholics (2017) [FLAC (level 8)]/12 Big Brother.flac

    Track gain               : -6.00 dB
    Peak                     : 0.960571
    CRC32 hash (test run)    : FC7A9ACC
    CRC32 hash               : FC7A9ACC
    CRC32 hash (skip zero)   : 2ECC9A4A
    AccurateRip v1 signature : C1F5D1BF
    AccurateRip v2 signature : A3C7A839
        ->Track not present in AccurateRip database.
    Statistics
        Read error                           : 0
        Jitter error (maybe fixed)           : 0
        Retry sector count                   : 0
        Damaged sector count                 : 0

Track 13
    Filename : /rip/Duke & Dukies - Djangoholics (2017) [LAME MP3 (VBR-new quality 0.0)]/13 Double Jeu.mp3
               /rip/Duke & Dukies - Djangoholics (2017) [FLAC (level 8)]/13 Double Jeu.flac

    Track gain               : -7.47 dB
    Peak                     : 0.966003
    CRC32 hash (test run)    : AA148C44
    CRC32 hash               : AA148C44
    CRC32 hash (skip zero)   : 453EB2AB
    AccurateRip v1 signature : D2505994
    AccurateRip v2 signature : 638D2F1E
        ->Track not present in AccurateRip database.
    Statistics
        Read error                           : 0
        Jitter error (maybe fixed)           : 0
        Retry sector count                   : 0
        Damaged sector count                 : 0

Track 14
    Filename : /rip/Duke & Dukies - Djangoholics (2017) [LAME MP3 (VBR-new quality 0.0)]/14 Puttin' on the Ritz.mp3
               /rip/Duke & Dukies - Djangoholics (2017) [FLAC (level 8)]/14 Puttin' on the Ritz.flac

    Track gain               : -7.80 dB
    Peak                     : 0.966003
    CRC32 hash (test run)    : E6993704
    CRC32 hash               : E6993704
    CRC32 hash (skip zero)   : 5CE2CE1A
    AccurateRip v1 signature : A09029C0
    AccurateRip v2 signature : 8B47296C
        ->Track not present in AccurateRip database.
    Statistics
        Read error                           : 0
        Jitter error (maybe fixed)           : 0
        Retry sector count                   : 0
        Damaged sector count                 : 0

No errors occurred

End of status report

-----BEGIN XLD SIGNATURE-----
LOXbshSjbyntueE.F2gPDXKS_jnZBRa_tRffQXjGZY59oZCb_FJbl0Ia6iGIqIutMOtdAM7pcW4qXeaUmjUPxJRLA3cSn0j2e.XQQ3y
-----END XLD SIGNATURE-----
Содержание индексной карты (.CUE)
TITLE "Djangoholics"
PERFORMER "Duke & Dukies"
REM GENRE "Jazz"
REM DATE "2017"
REM DISCID D90A920E
REM REPLAYGAIN_ALBUM_GAIN -7.07 dB
REM REPLAYGAIN_ALBUM_PEAK 0.966003
FILE "01 After you've gone.flac" WAVE
  TRACK 01 AUDIO
    TITLE "After you've gone"
    PERFORMER "Duke & Dukies"
    REM REPLAYGAIN_TRACK_GAIN -7.21 dB
    REM REPLAYGAIN_TRACK_PEAK 0.960480
    INDEX 01 00:00:00
FILE "02 Everybody loves my Baby.flac" WAVE
  TRACK 02 AUDIO
    TITLE "Everybody loves my Baby"
    PERFORMER "Duke & Dukies"
    REM REPLAYGAIN_TRACK_GAIN -7.39 dB
    REM REPLAYGAIN_TRACK_PEAK 0.955353
    INDEX 01 00:00:00
FILE "03 Bossa di Jetti.flac" WAVE
  TRACK 03 AUDIO
    TITLE "Bossa di Jetti"
    PERFORMER "Duke & Dukies"
    REM REPLAYGAIN_TRACK_GAIN -6.83 dB
    REM REPLAYGAIN_TRACK_PEAK 0.966003
    INDEX 01 00:00:00
FILE "04 Bei dir war es immer so schön.flac" WAVE
  TRACK 04 AUDIO
    TITLE "Bei dir war es immer so schön"
    PERFORMER "Duke & Dukies"
    REM REPLAYGAIN_TRACK_GAIN -6.65 dB
    REM REPLAYGAIN_TRACK_PEAK 0.966003
    INDEX 01 00:00:00
FILE "05 La Roulette de L'Enfer.flac" WAVE
  TRACK 05 AUDIO
    TITLE "La Roulette de L'Enfer"
    PERFORMER "Duke & Dukies"
    REM REPLAYGAIN_TRACK_GAIN -7.59 dB
    REM REPLAYGAIN_TRACK_PEAK 0.966003
    INDEX 01 00:00:00
FILE "06 Les Deux Guitars.flac" WAVE
  TRACK 06 AUDIO
    TITLE "Les Deux Guitars"
    PERFORMER "Duke & Dukies"
    REM REPLAYGAIN_TRACK_GAIN -6.94 dB
    REM REPLAYGAIN_TRACK_PEAK 0.966003
    INDEX 01 00:00:00
FILE "07 Occidental Swing.flac" WAVE
  TRACK 07 AUDIO
    TITLE "Occidental Swing"
    PERFORMER "Duke & Dukies"
    REM REPLAYGAIN_TRACK_GAIN -6.77 dB
    REM REPLAYGAIN_TRACK_PEAK 0.966003
    INDEX 01 00:00:00
FILE "08 Clockwise.flac" WAVE
  TRACK 08 AUDIO
    TITLE "Clockwise"
    PERFORMER "Duke & Dukies"
    REM REPLAYGAIN_TRACK_GAIN -7.09 dB
    REM REPLAYGAIN_TRACK_PEAK 0.960602
    INDEX 01 00:00:00
FILE "09 Gloomy Sunday.flac" WAVE
  TRACK 09 AUDIO
    TITLE "Gloomy Sunday"
    PERFORMER "Duke & Dukies"
    REM REPLAYGAIN_TRACK_GAIN -5.44 dB
    REM REPLAYGAIN_TRACK_PEAK 0.965973
    INDEX 01 00:00:00
FILE "10 Swing Gitan.flac" WAVE
  TRACK 10 AUDIO
    TITLE "Swing Gitan"
    PERFORMER "Duke & Dukies"
    REM REPLAYGAIN_TRACK_GAIN -7.63 dB
    REM REPLAYGAIN_TRACK_PEAK 0.963745
    INDEX 01 00:00:00
FILE "11 I've found a new Baby.flac" WAVE
  TRACK 11 AUDIO
    TITLE "I've found a new Baby"
    PERFORMER "Duke & Dukies"
    REM REPLAYGAIN_TRACK_GAIN -7.69 dB
    REM REPLAYGAIN_TRACK_PEAK 0.966003
    INDEX 01 00:00:00
FILE "12 Big Brother.flac" WAVE
  TRACK 12 AUDIO
    TITLE "Big Brother"
    PERFORMER "Duke & Dukies"
    REM REPLAYGAIN_TRACK_GAIN -6.00 dB
    REM REPLAYGAIN_TRACK_PEAK 0.960571
    INDEX 01 00:00:00
FILE "13 Double Jeu.flac" WAVE
  TRACK 13 AUDIO
    TITLE "Double Jeu"
    PERFORMER "Duke & Dukies"
    REM REPLAYGAIN_TRACK_GAIN -7.47 dB
    REM REPLAYGAIN_TRACK_PEAK 0.966003
    INDEX 01 00:00:00
FILE "14 Puttin' on the Ritz.flac" WAVE
  TRACK 14 AUDIO
    TITLE "Puttin' on the Ritz"
    PERFORMER "Duke & Dukies"
    REM REPLAYGAIN_TRACK_GAIN -7.80 dB
    REM REPLAYGAIN_TRACK_PEAK 0.966003
    INDEX 01 00:00:00
Лог проверки качества
-----------------------

DON'T MODIFY THIS FILE

-----------------------

PERFORMER: auCDtect Task Manager, ver. 1.6.0 RC1 build 1.6.0.1
Copyright (c) 2008-2010 y-soft. All rights reserved
http://y-soft.org

ANALYZER: auCDtect: CD records authenticity detector, version 0.8.2
Copyright (c) 2004 Oleg Berngardt. All rights reserved.
Copyright (c) 2004 Alexander Djourik. All rights reserved.

FILE: 14 Puttin' on the Ritz.flac
  Size: 21591626 Hash: 7EBAC46F2AE8C94AACBE96C3726CAF92 Accuracy: -m0
  Conclusion: CDDA 100%
  Signature: F74B1A77424468BADBDD280374D59FDDA0A72071
FILE: 13 Double Jeu.flac
  Size: 17750390 Hash: 8DFF3760624064110ACC2B9A76519755 Accuracy: -m0
  Conclusion: CDDA 100%
  Signature: CF8C6C6405BE5CAC3744D19DEA321D24173522AC
FILE: 12 Big Brother.flac
  Size: 21063871 Hash: 2D779D4D55B14E10FE879B73A7844EEA Accuracy: -m0
  Conclusion: CDDA 100%
  Signature: 0D1F40FBD4885C229EA4FE67767A7E1201C3FF1E
FILE: 11 I've found a new Baby.flac
  Size: 19473973 Hash: 582AAAE0BC2FFABA18EA6BBF547CD4DF Accuracy: -m0
  Conclusion: CDDA 100%
  Signature: 66F82608448389AC81699D740C5104E4C4DB1438
FILE: 10 Swing Gitan.flac
  Size: 20134207 Hash: 791430636633B1BC695F1222822851BF Accuracy: -m0
  Conclusion: CDDA 100%
  Signature: F23062F9947B57FFD84CBCBC542A80765E7F2B06
FILE: 09 Gloomy Sunday.flac
  Size: 18065309 Hash: 55B0F5F1F8E5BF3DD6D57CD748C88350 Accuracy: -m0
  Conclusion: CDDA 99%
  Signature: FEF22DFB3EE8B7EDACAB88399982F3DB67EDA030
FILE: 08 Clockwise.flac
  Size: 18639282 Hash: 872B26D0EA049C5C7AA242C1F9A732BD Accuracy: -m0
  Conclusion: CDDA 100%
  Signature: 23214C051460D2C0BE2BB709E081074644B370C2
FILE: 07 Occidental Swing.flac
  Size: 16666042 Hash: CB7A9D179E9B982435FE6EBF3844E593 Accuracy: -m0
  Conclusion: CDDA 100%
  Signature: 347254F272BAF704B70FD145A55D5A7BE8ABDFC1
FILE: 06 Les Deux Guitars.flac
  Size: 17467744 Hash: F965F8840E183F3D9BE25BB0CF9F59FB Accuracy: -m0
  Conclusion: CDDA 100%
  Signature: DE8300400D758879C6CF65D0DB98E4FB1F206477
FILE: 05 La Roulette de L'Enfer.flac
  Size: 19272223 Hash: 536C60A7EA8833685EFE4ADE26DB8D22 Accuracy: -m0
  Conclusion: CDDA 100%
  Signature: 90842D7C82CAD213C7E62FADDA4F08BD540C5560
FILE: 04 Bei dir war es immer so schön.flac
  Size: 19490631 Hash: 90F96DC2C94B04977858DE7971946FEA Accuracy: -m0
  Conclusion: CDDA 100%
  Signature: E171D880B8FA5053E926762B4F7E47AC2C49759B
FILE: 03 Bossa di Jetti.flac
  Size: 22406763 Hash: 2F5A7337511FAB2E40B69F875411526C Accuracy: -m0
  Conclusion: CDDA 100%
  Signature: 2AC96C71C38A6ACD08A79ACE87C74FEE88645B67
FILE: 02 Everybody loves my Baby.flac
  Size: 16925800 Hash: 429FAECDB559F1158CA33C10FD06AC03 Accuracy: -m0
  Conclusion: CDDA 100%
  Signature: BD2ECC3C030AA885BA7BD48F4B151ACD7C4D0650
FILE: 01 After you've gone.flac
  Size: 16876408 Hash: 402ADCCB3B91FE6CD847E48998A0B81F Accuracy: -m0
  Conclusion: CDDA 100%
  Signature: 13AE70918B4BC10E1A9FD9DED7C6647E4EAEB722
Any questions - support@pro-jazz.com
To become a power user - read FAQ.
01:17
396
Нет комментариев. Ваш будет первым!