Поиск

2017 Daniel Herskedal - The Roc {Edition 1084} [24-88,2]

2017 Daniel Herskedal - The Roc {Edition 1084} [24-88,2]
Стили:
Издатель (лейбл):

Треклист:

Формат записи/Источник записи: [TR24][OF]
Наличие водяных знаков: Нет
Год издания/переиздания диска: 2017
Продолжительность: 48:16
Наличие сканов в содержимом раздачи: Только обложка альбома
Контейнер: FLAC (*.flac)
Тип рипа: tracks
Разрядность: 24/88,2
Формат: PCM
Количество каналов: 2.0
Источник: highresaudio.com

Треклист:
01. Seeds Of Language (4:46)
02. The Roc (5:28)
03. Eternal Sunshine Creates A Desert (4:18)
04. Kurd, Bayat, Nahawand To Kurd (4:46)
05. Hijaz Train Station (3:20)
06. Thurayya Railways (6:31)
07. The Afrit (3:22)
08. There Are Three Things You Cannot Hide; Love, Smoke And A Man Riding On A Camel (5:01)
09. The Krøderen Line (5:52)
10. All That Has Happened, Happened As Fate Willed (4:50)

 
Лог проверки качества
foobar2000 1.3.9 / Dynamic Range Meter 1.1.1
log date: 2018-05-19 17:50:42
--------------------------------------------------------------------------------
Analyzed: Daniel Herskedal / The Roc
--------------------------------------------------------------------------------
DR         Peak         RMS     Duration Track
--------------------------------------------------------------------------------
DR8       -1.00 dB   -11.51 dB      4:46 01-Seeds Of Language
DR7       -1.00 dB   -11.71 dB      5:28 02-The Roc
DR11      -1.00 dB   -15.26 dB      4:18 03-Eternal Sunshine Creates A Desert
DR8       -1.00 dB   -12.86 dB      4:46 04-Kurd, Bayat, Nahawand To Kurd
DR9       -1.82 dB   -13.78 dB      3:20 05-Hijaz Train Station
DR8       -1.00 dB   -10.97 dB      6:31 06-Thurayya Railways
DR8       -1.00 dB   -13.63 dB      3:22 07-The Afrit
DR9       -1.00 dB   -12.04 dB      5:01 08-There Are Three Things You Cannot Hide; Love, Smoke And A Man Riding On A Camel
DR11      -1.00 dB   -15.42 dB      5:52 09-The Krøderen Line
DR8       -1.00 dB   -12.96 dB      4:50 10-All That Has Happened, Happened As Fate Willed
--------------------------------------------------------------------------------
Number of tracks:  10
Official DR value: DR9
Samplerate:        88200 Hz
Channels:          2
Bits per sample:   24
Bitrate:           2513 kbps
Codec:             FLAC
================================================================================

 

Приватный:
Нет (DHT включён)
Размер:
897.24 Мб (940,824,179 байт) » файлов: 13
Участники:
0 раздают, 0 качают (0 участников всего)
Внешние участники:
2 раздают, 1 качают (3 участников всего) [ Обновить ]
Никого нет на раздаче - пишите личное сообщение M0p94ok
No seeders - write personal message to M0p94ok
20:36
58
Нет комментариев. Ваш будет первым!