Поиск

2017 Caterina Valente - The Jazz Singer! (2021 Remastered) {RevOla} [24-48]

2017 Caterina Valente - The Jazz Singer! (2021 Remastered) {RevOla} [24-48]
Стили:
Дата записи диска:
1954-1955
Место записи:
SWF Studios Baden-Baden; SDR Studios, Stuttgart
Дата переиздания диска:
13 августа 2021
Издатель (лейбл):
Носитель:
WEB
Формат:
PCM
Тип рипа:
tracks
Контейнер:
FLAC (*.flac)
Количество каналов:
2.0
Разрядность/ЧД:
24/48
Битрейт аудио:
lossless
Наличие сканов:
буклет pdf

Треклист:

01 - After You've Gone 03:01
02 - I Ain't Gonna Tell You 02:25
03 - They Can't Take That Away from Me 02:30
04 - Pennies From Heaven 02:17
05 - Is You Is or Is You Ain't My Baby? 02:59
06 - Good Morning Blues 03:22
07 - I Only Saw Him Once 03:30
08 - Marianne: Just You, Just Me 03:37
09 - Festival Jump 09:42
10 - Jazz Invention 03:33
11 - Aquarela do Brasil 03:04
12 - Anna (El Negro Zumbon) 02:58
13 - El Cumbanchero 03:16
14 - Granada 03:17
15 - Cuba bei Nacht (Cubanacan) 03:14
16 - Ouvertüre zu einem verlorenen Träum 04:36
17 - I'll Remember April 06:33
18 - All The Things You Are 02:51
 

Состав:
  • Caterina Valente — vocals
Лог проверки качества
foobar2000 1.4.3 / Dynamic Range Meter 1.1.1
log date: 2022-04-09 21:41:52
--------------------------------------------------------------------------------
Analyzed: Caterina Valente / Caterina Valente: The Jazz Singer
--------------------------------------------------------------------------------
DR         Peak         RMS     Duration Track
--------------------------------------------------------------------------------
DR12      -2.38 dB   -16.01 dB      3:01 01-After You've Gone (Live)
DR13      -0.22 dB   -16.10 dB      2:25 02-I Ain't Gonna Tell You (Live)
DR10      -3.44 dB   -16.19 dB      2:30 03-They Can't Take That Away from Me (Live)
DR11      -3.98 dB   -17.89 dB      2:17 04-Pennies from Heaven (Live)
DR13      -1.32 dB   -16.63 dB      2:59 05-Is You Is or Is You Ain't My Baby (Live)
DR12      -0.97 dB   -15.73 dB      3:22 06-Good Morning Blues (Live)
DR12      -1.85 dB   -16.51 dB      3:30 07-I Only Saw Him Once (Live)
DR13      -0.22 dB   -15.34 dB      3:37 08-Just You, Just Me (Live)
DR13      -0.55 dB   -14.67 dB      9:42 09-Festival Jump (Live)
DR11      -2.63 dB   -17.10 dB      3:33 10-Jazz Invention
DR12      -3.23 dB   -18.11 dB      3:04 11-Aquarela do Brasil
DR14      -2.88 dB   -20.64 dB      2:58 12-El Negro Zumbón "Anna" (Live)
DR17      -0.01 dB   -20.23 dB      3:16 13-El Cumbanchero (Live)
DR12      -1.74 dB   -18.58 dB      3:17 14-Granada (Live)
DR11      -3.89 dB   -16.96 dB      3:14 15-Cuba bei Nacht
DR13      -0.04 dB   -16.17 dB      4:36 16-Ouvertüre zu einem verlorenen Träum
DR12      -1.95 dB   -15.59 dB      6:33 17-I'll Remember April (Live)
DR11      -2.04 dB   -15.14 dB      2:51 18-All the Things You Are (Live)
--------------------------------------------------------------------------------
Number of tracks:  18
Official DR value: DR12
Samplerate:        48000 Hz
Channels:          2
Bits per sample:   24
Bitrate:           1491 kbps
Codec:             FLAC
================================================================================
Download available for power users only.
To become a power user - read FAQ.
09:02
108
Нет комментариев. Ваш будет первым!