Поиск

2017 Blank & Jones - Milchbar: Seaside Season 9 {Soundcolours SC0351}

2017 Blank & Jones - Milchbar: Seaside Season 9 {Soundcolours SC0351}
Страна-производитель диска (релиза):
EU
Дата издания диска:
2017
Номер по каталогу:
SC0351
Носитель:
CD
Битрейт аудио:
lossless
Аудиокодек:
FLAC (*.flac)
Тип рипа:
tracks+.cue
Время звучания:
01:16:20
Наличие сканов:
  • да
Релизёр (источник):
nikolux
Треклист:

01. Blank & Jones – My Island (04:19)
02. Blank & Jones – Adios Ayer (with Zoe Dee) (04:29)
03. Cantoma – Sea of Blue (04:13)
04. Zee Erf – Southern Freeez (feat. Francesca Mondi) [Mudd's Mix for Emma] (03:34)
05. The Swan and The Lake – Fresh Food (05:10)
06. Niia – Body (Stint Remix) (03:45)
07. Blank & Jones – Morning of the Earth (Stardelay Deep Sea Mix) (04:03)
08. Falqo, Blank & Jones – Across the Sea (Falqo vs. Blank & Jones) [Rework] (03:59)
09. Dalholt & Langkilde – Afrique (feat. Demise Ducha) (05:50)
10. Blank & Jones – Risin' to the Top (with Zoe Dee) (04:37)
11. Cantoma – Talva Lumi (04:28)
12. RunSQ – Give You Up (with Emma Brammer) [Summer Vibe Mix] (06:16)
13. Blank & Jones – Nothing Can Come Between Us (with Mike Francis) [Re-Mix] (06:00)
14. Gordon Edge – Los Trocados (05:34)
15. The Swan & The Lake – Dive (feat. Anders Brandt) (06:26)
16. Troels Hammer – Theme from Ngong Hills (03:40)

Лог создания рипа
Exact Audio Copy V1.0 beta 3 from 29. August 2011
EAC extraction logfile from 25. April 2017, 13:25
presented by Blank & Jones / Milchbar Seaside Season 9
Used drive  : PLEXTOR DVDR   PX-760A   Adapter: 1  ID: 0
Read mode               : Secure
Utilize accurate stream : Yes
Defeat audio cache      : Yes
Make use of C2 pointers : No
Read offset correction                      : 30
Overread into Lead-In and Lead-Out          : No
Fill up missing offset samples with silence : Yes
Delete leading and trailing silent blocks   : No
Null samples used in CRC calculations       : Yes
Used interface                              : Native Win32 interface for Win NT & 2000
Gap handling                                : Appended to previous track
Used output format              : User Defined Encoder
Selected bitrate                : 128 kBit/s
Quality                         : High
Add ID3 tag                     : No
Command line compressor         : C:\Program Files (x86)\FLAC\flac.exe
Additional command line options : -V -8 -T "Genre=%genre%" -T "Artist=%artist%" -T "Title=%title%" -T "Album=%albumtitle%" -T "Date=%year%" -T "Tracknumber=%tracknr%" -T "Comment=%comment%" %source%
TOC of the extracted CD
     Track |   Start  |  Length  | Start sector | End sector
    ---------------------------------------------------------
        1  |  0:00.00 |  4:20.11 |         0    |    19510
        2  |  4:20.11 |  4:27.73 |     19511    |    39608
        3  |  8:48.09 |  4:14.25 |     39609    |    58683
        4  | 13:02.34 |  3:34.39 |     58684    |    74772
        5  | 16:36.73 |  5:11.35 |     74773    |    98132
        6  | 21:48.33 |  3:45.52 |     98133    |   115059
        7  | 25:34.10 |  4:01.20 |    115060    |   133154
        8  | 29:35.30 |  3:56.39 |    133155    |   150893
        9  | 33:31.69 |  5:52.67 |    150894    |   177360
       10  | 39:24.61 |  4:37.68 |    177361    |   198203
       11  | 44:02.54 |  4:24.34 |    198204    |   218037
       12  | 48:27.13 |  6:17.19 |    218038    |   246331
       13  | 54:44.32 |  6:01.54 |    246332    |   273460
       14  | 60:46.11 |  5:32.29 |    273461    |   298389
       15  | 66:18.40 |  6:19.67 |    298390    |   326881
       16  | 72:38.32 |  3:41.41 |    326882    |   343497
Track  1
     Filename D:\Blank & Jones - Milchbar. Seaside Season 9 (2017)\01. Blank & Jones - My Island.wav
     Pre-gap length  0:00:02.00
     Peak level 97.9 %
     Extraction speed 2.2 X
     Track quality 100.0 %
     Test CRC 569F3F40
     Copy CRC 569F3F40
     Track not present in AccurateRip database
     Copy OK
Track  2
     Filename D:\Blank & Jones - Milchbar. Seaside Season 9 (2017)\02. Blank & Jones with Zoe Dee - Adios Ayer.wav
     Peak level 97.9 %
     Extraction speed 2.2 X
     Track quality 100.0 %
     Test CRC 1B348CBA
     Copy CRC 1B348CBA
     Track not present in AccurateRip database
     Copy OK
Track  3
     Filename D:\Blank & Jones - Milchbar. Seaside Season 9 (2017)\03. Cantoma - Sea Of Blue.wav
     Peak level 93.9 %
     Extraction speed 2.2 X
     Track quality 100.0 %
     Test CRC FBF06407
     Copy CRC FBF06407
     Track not present in AccurateRip database
     Copy OK
Track  4
     Filename D:\Blank & Jones - Milchbar. Seaside Season 9 (2017)\04. Zee Erf feat. Francesca Mondi - Southern Freeez (Muddґs Mix For Emma).wav
     Peak level 97.9 %
     Extraction speed 2.1 X
     Track quality 100.0 %
     Test CRC 2044FB81
     Copy CRC 2044FB81
     Track not present in AccurateRip database
     Copy OK
Track  5
     Filename D:\Blank & Jones - Milchbar. Seaside Season 9 (2017)\05. The Swan And The Lake - Fresh Food.wav
     Peak level 97.9 %
     Extraction speed 2.2 X
     Track quality 100.0 %
     Test CRC D16488FC
     Copy CRC D16488FC
     Track not present in AccurateRip database
     Copy OK
Track  6
     Filename D:\Blank & Jones - Milchbar. Seaside Season 9 (2017)\06. Niia - Body (Stint Remix).wav
     Peak level 84.3 %
     Extraction speed 2.2 X
     Track quality 100.0 %
     Test CRC 550BA090
     Copy CRC 550BA090
     Track not present in AccurateRip database
     Copy OK
Track  7
     Filename D:\Blank & Jones - Milchbar. Seaside Season 9 (2017)\07. Blank & Jones - Morning Of The Earth (Stardelay Deep Sea Mix).wav
     Peak level 97.9 %
     Extraction speed 2.2 X
     Track quality 100.0 %
     Test CRC 021C13D2
     Copy CRC 021C13D2
     Track not present in AccurateRip database
     Copy OK
Track  8
     Filename D:\Blank & Jones - Milchbar. Seaside Season 9 (2017)\08. Falqo vs Blank & Jones - Across The Sea (Blank & Jones Rework).wav
     Peak level 97.9 %
     Extraction speed 2.2 X
     Track quality 100.0 %
     Test CRC 287FE974
     Copy CRC 287FE974
     Track not present in AccurateRip database
     Copy OK
Track  9
     Filename D:\Blank & Jones - Milchbar. Seaside Season 9 (2017)\09. Dalholt & Langkilde feat. Demise Ducha - Afrique.wav
     Peak level 97.9 %
     Extraction speed 2.1 X
     Track quality 99.9 %
     Test CRC 1190129F
     Copy CRC 1190129F
     Track not present in AccurateRip database
     Copy OK
Track 10
     Filename D:\Blank & Jones - Milchbar. Seaside Season 9 (2017)\10. Blank & Jones with Zoe Dee - Risin To The Top.wav
     Peak level 97.9 %
     Extraction speed 2.0 X
     Track quality 99.9 %
     Test CRC 4C9D1019
     Copy CRC 4C9D1019
     Track not present in AccurateRip database
     Copy OK
Track 11
     Filename D:\Blank & Jones - Milchbar. Seaside Season 9 (2017)\11. Cantoma - Talva Lumi.wav
     Peak level 91.2 %
     Extraction speed 2.2 X
     Track quality 100.0 %
     Test CRC 1D1D7277
     Copy CRC 1D1D7277
     Track not present in AccurateRip database
     Copy OK
Track 12
     Filename D:\Blank & Jones - Milchbar. Seaside Season 9 (2017)\12. RunSQ with Emma Brammer - Give You Up (Summer Vibe Mix).wav
     Peak level 91.9 %
     Extraction speed 2.3 X
     Track quality 100.0 %
     Test CRC 34CDB94D
     Copy CRC 34CDB94D
     Track not present in AccurateRip database
     Copy OK
Track 13
     Filename D:\Blank & Jones - Milchbar. Seaside Season 9 (2017)\13. Blank & Jones with Mike Francis - Nothing Can Come Between Us (Re-Mix).wav
     Peak level 97.3 %
     Extraction speed 2.3 X
     Track quality 100.0 %
     Test CRC B2254D4F
     Copy CRC B2254D4F
     Track not present in AccurateRip database
     Copy OK
Track 14
     Filename D:\Blank & Jones - Milchbar. Seaside Season 9 (2017)\14. Gordon Edge - Los Trocados.wav
     Peak level 97.9 %
     Extraction speed 2.2 X
     Track quality 100.0 %
     Test CRC 0C0D4A4A
     Copy CRC 0C0D4A4A
     Track not present in AccurateRip database
     Copy OK
Track 15
     Filename D:\Blank & Jones - Milchbar. Seaside Season 9 (2017)\15. The Swan & The Lake feat. Anders Brandt - Dive.wav
     Peak level 97.6 %
     Extraction speed 2.3 X
     Track quality 100.0 %
     Test CRC 8FDDE4A1
     Copy CRC 8FDDE4A1
     Track not present in AccurateRip database
     Copy OK
Track 16
     Filename D:\Blank & Jones - Milchbar. Seaside Season 9 (2017)\16. Troels Hammer - Theme From Ngong Hills.wav
     Peak level 97.9 %
     Extraction speed 2.1 X
     Track quality 100.0 %
     Test CRC 411C9065
     Copy CRC 411C9065
     Track not present in AccurateRip database
     Copy OK
None of the tracks are present in the AccurateRip database
No errors occurred
End of status report
==== Log checksum A3AFC84AD85B1EBED18E376A47749B9E2AD77628393892BF2253B6A8B014BDA5 ====
Содержание индексной карты (.CUE)
REM DISCID EF11E310
REM COMMENT "ExactAudioCopy v1.0b3"
CATALOG 0814281010586
PERFORMER "presented by Blank & Jones"
TITLE "Milchbar Seaside Season 9"
FILE "01. Blank & Jones - My Island.wav" WAVE
  TRACK 01 AUDIO
    TITLE "My Island"
    PERFORMER "Blank & Jones"
    ISRC DEGE91700003
    INDEX 01 00:00:00
FILE "02. Blank & Jones with Zoe Dee - Adios Ayer.wav" WAVE
  TRACK 02 AUDIO
    TITLE "Adios Ayer"
    PERFORMER "Blank & Jones with Zoe Dee"
    ISRC DEGE91700004
    INDEX 01 00:00:00
FILE "03. Cantoma - Sea Of Blue.wav" WAVE
  TRACK 03 AUDIO
    TITLE "Sea Of Blue"
    PERFORMER "Cantoma"
    ISRC UK8SW7000009
    INDEX 01 00:00:00
FILE "04. Zee Erf feat. Francesca Mondi - Southern Freeez (Muddґs Mix For Emma).wav" WAVE
  TRACK 04 AUDIO
    TITLE "Southern Freeez (Muddґs Mix For Emma)"
    PERFORMER "Zee Erf feat. Francesca Mondi"
    ISRC GBSWL1700002
    INDEX 01 00:00:00
FILE "05. The Swan And The Lake - Fresh Food.wav" WAVE
  TRACK 05 AUDIO
    TITLE "Fresh Food"
    PERFORMER "The Swan And The Lake"
    ISRC DKAZ71712701
    INDEX 01 00:00:00
FILE "06. Niia - Body (Stint Remix).wav" WAVE
  TRACK 06 AUDIO
    TITLE "Body (Stint Remix)"
    PERFORMER "Niia"
    ISRC DEGE91700007
    INDEX 01 00:00:00
FILE "07. Blank & Jones - Morning Of The Earth (Stardelay Deep Sea Mix).wav" WAVE
  TRACK 07 AUDIO
    TITLE "Morning Of The Earth (Stardelay Deep Sea Mix)"
    PERFORMER "Blank & Jones"
    ISRC DEGE91700008
    INDEX 01 00:00:00
FILE "08. Falqo vs Blank & Jones - Across The Sea (Blank & Jones Rework).wav" WAVE
  TRACK 08 AUDIO
    TITLE "Across The Sea (Blank & Jones Rework)"
    PERFORMER "Falqo vs Blank & Jones"
    ISRC DEGE91700009
    INDEX 01 00:00:00
FILE "09. Dalholt & Langkilde feat. Demise Ducha - Afrique.wav" WAVE
  TRACK 09 AUDIO
    TITLE "Afrique"
    PERFORMER "Dalholt & Langkilde feat. Demise Ducha"
    ISRC DKAZ71710406
    INDEX 01 00:00:00
FILE "10. Blank & Jones with Zoe Dee - Risin To The Top.wav" WAVE
  TRACK 10 AUDIO
    TITLE "Risin To The Top"
    PERFORMER "Blank & Jones with Zoe Dee"
    ISRC DEGE91700010
    INDEX 01 00:00:00
FILE "11. Cantoma - Talva Lumi.wav" WAVE
  TRACK 11 AUDIO
    TITLE "Talva Lumi"
    PERFORMER "Cantoma"
    ISRC UK8SW7000006
    INDEX 01 00:00:00
FILE "12. RunSQ with Emma Brammer - Give You Up (Summer Vibe Mix).wav" WAVE
  TRACK 12 AUDIO
    TITLE "Give You Up (Summer Vibe Mix)"
    PERFORMER "RunSQ with Emma Brammer"
    ISRC DEGE91700012
    INDEX 01 00:00:00
FILE "13. Blank & Jones with Mike Francis - Nothing Can Come Between Us (Re-Mix).wav" WAVE
  TRACK 13 AUDIO
    TITLE "Nothing Can Come Between Us (Re-Mix)"
    PERFORMER "Blank & Jones with Mike Francis"
    ISRC DEGE91700013
    INDEX 01 00:00:00
FILE "14. Gordon Edge - Los Trocados.wav" WAVE
  TRACK 14 AUDIO
    TITLE "Los Trocados"
    PERFORMER "Gordon Edge"
    ISRC DEGE91700014
    INDEX 01 00:00:00
FILE "15. The Swan & The Lake feat. Anders Brandt - Dive.wav" WAVE
  TRACK 15 AUDIO
    TITLE "Dive "
    PERFORMER "The Swan & The Lake feat. Anders Brandt"
    ISRC DKAZ71615912
    INDEX 01 00:00:00
FILE "16. Troels Hammer - Theme From Ngong Hills.wav" WAVE
  TRACK 16 AUDIO
    TITLE "Theme From Ngong Hills"
    PERFORMER "Troels Hammer"
    ISRC DKAZ71710203
    INDEX 01 00:00:00
Приватный:
Нет (DHT включён)
Размер:
584.34 Мб (612,720,341 байт) » файлов: 28
Участники:
0 раздают, 0 качают (0 участников всего)
Внешние участники:
14 раздают, 4 качают (18 участников всего) [ Обновить ]
21:11
161
RSS
Нет комментариев. Ваш будет первым!