Вы используете незарегистрированную версию компонента "Вкладки"!

Поиск

2017 Andreas Dreier Trio – But Not for Me {Losen} [24-96]

2017 Andreas Dreier Trio – But Not for Me {Losen} [24-96]
Стили:
Битрейт аудио:
lossless
Доп. инфо:

Формат записи/Источник записи: [TR24][OF]
Наличие водяных знаков: Нет
Год издания: 2017
Издатель (лейбл): Losen Records
Продолжительность: 00:48:20
Наличие сканов в содержимом раздачи: Буклет PDF
Источник: prostudiomasters
Контейнер: FLAC (*.flac)
Тип рипа: tracks
Разрядность: 24/96
Формат: PCM
Количество каналов: 2.0

Лог проверки качества
foobar2000 1.3.7 / Dynamic Range Meter 1.1.1
log date: 2020-01-08 02:01:18

––––––––––––––––––––––––––––––––––––––––
Analyzed: Andreas Dreier Trio / But Not for Me
––––––––––––––––––––––––––––––––––––––––

DR Peak RMS Duration Track
––––––––––––––––––––––––––––––––––––––––
DR10 -1.00 dB -13.42 dB 5:09 01-I´ll Remember April
DR10 -1.00 dB -14.46 dB 5:11 02-Ahmad´s Blues
DR10 -1.00 dB -13.38 dB 4:22 03-All the Things You Are
DR10 -1.00 dB -13.62 dB 5:09 04-You Don´t Know What Love Is
DR10 -1.00 dB -13.81 dB 3:54 05-Moonlight in Vermont
DR11 -1.00 dB -14.71 dB 4:53 06-But Not for Me
DR10 -1.00 dB -14.00 dB 5:09 07-Gone with the Wind
DR10 -1.00 dB -13.34 dB 4:59 08-Raincheck
DR10 -1.00 dB -14.74 dB 5:53 09-Moon River
DR10 -1.00 dB -13.08 dB 3:42 10-Raincheck (Alternate Take)
––––––––––––––––––––––––––––––––––––––––

Number of tracks: 10
Official DR value: DR10

Samplerate: 96000 Hz
Channels: 2
Bits per sample: 24
Bitrate: 2844 kbps
Codec: FLAC
================================================================================
Any questions - support@pro-jazz.com. Есть вопросы - support@pro-jazz.com
16:37
216
Нет комментариев. Ваш будет первым!