Вы используете незарегистрированную версию компонента "Вкладки"!

Поиск

2017 Anat Cohen & Marcello Goncalves - Outra Coisa: The Music of Moacir Santos {Anzic} [24-96]

2017 Anat Cohen & Marcello Goncalves - Outra Coisa: The Music of Moacir Santos {Anzic} [24-96]
Доп. инфо:

Формат записи/Источник записи: [TR24][OF]
Наличие водяных знаков: Нет
Год издания/переиздания диска: 2017
Издатель (лейбл): Anzic Records
Продолжительность: 00:46:42
Наличие сканов в содержимом раздачи: Буклет PDF

Контейнер: FLAC (*.flac)
Тип рипа: tracks
Разрядность: 24/96
Формат: WAV (flac.ape.wv)
Количество каналов: 2.0

Источник (релизер): redacted <-- qobuz

Лог проверки качества
foobar2000 1.5 / Dynamic Range Meter 1.1.1
log date: 2019-12-17 01:43:54

--------------------------------------------------------------------------------
Analyzed: Anat Cohen & Marcello Goncalves / Outra Coisa
--------------------------------------------------------------------------------

DR         Peak         RMS     Duration Track
--------------------------------------------------------------------------------
DR8       -0.31 dB    -9.85 dB      3:45 01-Amphibious
DR9       -0.32 dB   -11.22 dB      3:04 02-Coisa No.1
DR9       -0.32 dB   -11.67 dB      3:21 03-Outra Coisa
DR11      -0.32 dB   -14.61 dB      3:49 04-Coisa No.6
DR9       -0.31 dB   -11.30 dB      4:07 05-Coisa No.10
DR8       -0.32 dB   -10.41 dB      4:31 06-Nana (Coisa No.5)
DR8       -0.32 dB   -11.25 dB      3:48 07-Coisa No.9
DR7       -0.31 dB    -9.91 dB      4:32 08-Mae Iracema
DR10      -0.32 dB   -12.91 dB      4:25 09-Odudua
DR8       -0.31 dB   -10.09 dB      5:25 10-Maracatucute
DR9       -0.32 dB   -12.08 dB      4:47 11-Paraiso
DR10      -0.32 dB   -16.27 dB      1:08 12-Carrossel
--------------------------------------------------------------------------------

Number of tracks:  12
Official DR value: DR9

Samplerate:        96000 Hz
Channels:          2
Bits per sample:   24
Bitrate:           2254 kbps
Codec:             FLAC
================================================================================
Any questions - support@pro-jazz.com. Есть вопросы - support@pro-jazz.com
15:44
284
Нет комментариев. Ваш будет первым!