Поиск

2016 Winston Byrd - Once Upon A Time Called Right Now {Ropeadope} [24-44,1]

2016 Winston Byrd - Once Upon A Time Called Right Now {Ropeadope} [24-44,1]
Дата издания диска:
22 июля 2016
Издатель (лейбл):
Лог проверки качества
foobar2000 1.3.9 / Замер динамического диапазона (DR) 1.1.1
Дата отчёта:  2020-02-11 15:20:08

--------------------------------------------------------------------------------
Анализ:   Winston Byrd / Once Upon A Time Called Right Now
--------------------------------------------------------------------------------

DR         Пики         RMS           Продолжительность трека
--------------------------------------------------------------------------------
DR5       -0.28 дБ    -7.45 дБ      9:07 01-Ramblin
DR5       -2.46 дБ    -9.84 дБ      3:16 02-On This Night Of A Thousand Stars
DR7        0.00 дБ    -9.46 дБ      5:37 03-Brotherhood Of Man
DR9        0.00 дБ   -10.70 дБ      6:41 04-Grandma Jo’s House
DR7       -0.11 дБ    -9.45 дБ      4:46 05-Borrowed Time
DR8        0.00 дБ   -10.31 дБ      4:52 06-Blue Rondo A La Turk
DR9        0.00 дБ   -11.39 дБ      4:25 07-Anne Rising
DR9        0.00 дБ   -12.13 дБ      2:40 08-Mumbles
DR8        0.00 дБ    -9.41 дБ      7:13 09-Times
DR6        0.00 дБ    -8.62 дБ      6:29 10-Brown Eyes
DR10       0.00 дБ   -11.51 дБ      5:35 11-One Life, One Love
--------------------------------------------------------------------------------

Количество треков: 11
Реальные значения DR: DR8

Частота:   44100 Гц
Каналов:   2
Разрядность:   24
Битрейт:   940 кбит/с
Кодек:   FLAC
================================================================================
No seeders - write personal message to M0p94ok. Any questions - support@pro-jazz.com.
Нет сидеров - пишите в личку M0p94ok. Есть вопросы - support@pro-jazz.com
10:04
217
Нет комментариев. Ваш будет первым!