Поиск

2016 Piers Faccini - I Dreamed An Island {Beating Drum, Six Degrees} [24-44,1]

2016 Piers Faccini - I Dreamed An Island {Beating Drum, Six Degrees} [24-44,1]
Треклист:

01. To Be Sky 03:32
02. Drone 03:07
03. Bring Down The Wall 03:25
04. Cloak Of Blue 03:26
05. The Many Were More 03:33
06. Judith 05:04
07. Beloved 04:27
08. Anima 04:06
09. Comets 06:37
10. Oiseau 02:46

Состав:
  • Vocalist/Guitarist - Piers Faccini
  • Drummer/Percussionist - Simone Prattico
  • Violinist - Jasser Haj Youssef
  • Double bassist - Chris Wood
  • Percussionist and Saz player - Bijan Chemirani
  • Bassist - Hilaire Penda
  • Baroque Guitarist - Luca Tarantino
  • Psaltery player - Bill Cooley
  • Guembri player - Loy Ehrlich
  • Bassist - Pat Donaldson

released October 24, 2016

Produced by Piers Faccini for Beating Drum Records
All songs by Piers Faccini except*
*To be Sky: music by Bijan Chemirani and Piers Faccini
Bring Down the Wall: lyrics in Salentino by Mauro Durante
The Many Were More: lyrics by Francesca Beard and Piers Faccini, music by Piers Faccini and Simone Prattico, poem My Sicily by Ibn-Hamdis
Judith: lyrics by Francesca Beard and Piers Faccini
Anima: lyrics in Palermitano by Fabrizio Cammarata
Arrangements for drums and percussion by Simone Prattico
Recorded by Piers Faccini at Fire Head Studios, Les Cevennes, France
Drums recorded at NGR, Roma by Francesco de Nigris
Zampogna recorded at Daniele and Mauro Durante’s studio in Lecce, Italy
Baroque guitar and Theorbo recorded by Luca Tarantino in his home studio, Lecce, Italy
Mixed by Francesco de Nigris at NGR, Roma
Mastering by François Fanelli at Sonics Mastering, Marseille
Executive producer: Anais Ledoux

Доп. инфо:

Формат записи/Источник записи: [TR24][OF]
Наличие водяных знаков: Нет
Год издания/переиздания диска: 2016
Издатель (лейбл): Beating Drum Records | Six Degrees Records
Продолжительность: 00:40:08
Наличие сканов в содержимом раздачи: Да (сканы)
Источник (релизер): qobuz

Контейнер: FLAC (*.flac)
Тип рипа: tracks
Разрядность: 24/44,1
Формат: PCM
Количество каналов: 2.0
Доп. информация:
http://www.piersfaccini.com/
http://www.idreamedanisland.com/

Лог проверки качества
foobar2000 1.1.15 / Dynamic Range Meter 1.1.1
log date: 2019-11-12 19:59:25

--------------------------------------------------------------------------------
Analyzed: Piers Faccini / I Dreamed An Island
--------------------------------------------------------------------------------

DR         Peak         RMS     Duration Track
--------------------------------------------------------------------------------
DR11      -0.32 dB   -14.67 dB      3:32 01-To Be Sky
DR12      -0.32 dB   -15.49 dB      3:08 02-Drone
DR10      -0.08 dB   -13.19 dB      3:26 03-Bring Down The Wall
DR10      -0.32 dB   -13.58 dB      3:27 04-Cloak Of Blue
DR12      -0.32 dB   -14.60 dB      3:33 05-The Many Were More
DR13      -1.15 dB   -16.64 dB      5:05 06-Judith
DR12      -0.32 dB   -15.01 dB      4:27 07-Beloved
DR11      -0.32 dB   -15.11 dB      4:07 08-Anima
DR11      -0.32 dB   -15.50 dB      6:37 09-Comets
DR12      -3.44 dB   -19.09 dB      2:46 10-Oiseau
--------------------------------------------------------------------------------

Number of tracks:  10
Official DR value: DR11

Samplerate:        44100 Hz
Channels:          2
Bits per sample:   24
Bitrate:           1230 kbps
Codec:             FLAC
================================================================================
Download available for power users only.
16:48
656
Нет комментариев. Ваш будет первым!