Поиск

2016 Nemeth Janos Quintet - Exodus (2021) {Hunnia} [24-96]

2016 Nemeth Janos Quintet - Exodus (2021) {Hunnia} [24-96]
Стили:
Дата переиздания диска:
29 июля 2021
Издатель (лейбл):
Носитель:
WEB
Формат:
PCM
Тип рипа:
tracks
Контейнер:
FLAC (*.flac)
Количество каналов:
2.0
Разрядность/ЧД:
24/96
Битрейт аудио:
lossless
Время звучания:
00:45:02
Наличие сканов:
только обложка

Треклист:

01 - In the Beginning (08:21)
02 - Walking in the Park with Annu (08:31)
03 - Exodus (09:46)
04 - Contrast (04:51)
05 - Travellers (06:14)
06 - Last Blues (07:16)

Лог проверки качества
foobar2000 1.4.2 / Dynamic Range Meter 1.1.1
log date: 2021-07-31 07:21:23
--------------------------------------------------------------------------------
Analyzed: Nemeth Janos Quintet / Exodus
--------------------------------------------------------------------------------
DR         Peak         RMS     Duration Track
--------------------------------------------------------------------------------
DR10      -0.20 dB   -13.11 dB      8:22 01-In the Beginning
DR10      -0.20 dB   -13.23 dB      8:32 02-Walking in the Park with Annu
DR11      -0.20 dB   -15.14 dB      9:46 03-Exodus
DR10      -0.20 dB   -12.27 dB      4:52 04-Contrast
DR11      -0.20 dB   -14.55 dB      6:15 05-Travellers
DR10      -0.20 dB   -12.40 dB      7:16 06-Last Blues
--------------------------------------------------------------------------------
Number of tracks:  6
Official DR value: DR10
Samplerate:        96000 Hz
Channels:          2
Bits per sample:   24
Bitrate:           3456 kbps
Codec:             FLAC
================================================================================
10:30
574
Нет комментариев. Ваш будет первым!