Вы используете незарегистрированную версию компонента "Вкладки"!

Поиск

2016 Mor Karbasi - Ojos De Novia {Alama} [24-44,1]

2016 Mor Karbasi - Ojos De Novia {Alama} [24-44,1]
Доп. инфо:

Формат записи/Источник записи: [TR24][OF]
Наличие водяных знаков: Нет
Год издания/переиздания диска: 2016
Издатель (лейбл): Alama Records / MDC (Music Development Company)
Продолжительность: 00:46:00
Наличие сканов в содержимом раздачи: Только обложка альбома
Источник (релизер): qobuz

Контейнер: FLAC (*.flac)
Тип рипа: tracks
Разрядность: 24/44,1
Формат: PCM
Количество каналов: 2.0
Доп. информация: http://www.morkarbasi.com/

Лог проверки качества
foobar2000 1.3.16 / Dynamic Range Meter 1.1.1
log date: 2019-01-28 18:52:01

--------------------------------------------------------------------------------
Analyzed: Mor Karbasi / Ojos de Novia
--------------------------------------------------------------------------------

DR         Peak         RMS     Duration Track
--------------------------------------------------------------------------------
DR8       -0.04 dB   -10.73 dB      4:58 01-Bismillah
DR9       -0.03 dB   -10.32 dB      2:50 02-Hayken Juar
DR10      -0.04 dB   -13.14 dB      3:49 03-Ahuvati Ester
DR9       -0.04 dB   -12.64 dB      4:31 04-Neula Hi Dalti
DR10      -0.10 dB   -13.17 dB      3:15 05-En la Ciudad de Toledo
DR8       -0.05 dB   -10.90 dB      4:30 06-Yal Mashta
DR8       -0.03 dB   -10.17 dB      3:19 07-Ojos de Novia
DR10      -0.08 dB   -12.81 dB      3:48 08-Susona
DR8       -0.04 dB    -9.71 dB      2:16 09-Ijdigen
DR9       -0.16 dB   -11.63 dB      3:43 10-Parparim
DR10      -0.70 dB   -13.19 dB      3:43 11-Bezos
DR11      -0.72 dB   -14.24 dB      2:04 12-Justicia Senor
DR11      -0.48 dB   -14.91 dB      3:19 13-Tres Morillas
--------------------------------------------------------------------------------

Number of tracks:  13
Official DR value: DR9

Samplerate:        44100 Hz
Channels:          2
Bits per sample:   24
Bitrate:           1449 kbps
Codec:             FLAC
================================================================================
Any questions - support@pro-jazz.com. Есть вопросы - support@pro-jazz.com
11:49
371
Нет комментариев. Ваш будет первым!