Вы используете незарегистрированную версию компонента "Вкладки"!

Поиск

2016 Matthew Sheens - Live @ COMA {Club COMA} [24-44,1]

2016 Matthew Sheens - Live @ COMA {Club COMA} [24-44,1]
Стили:
Битрейт аудио:
lossless
Доп. инфо:

Формат записи/Источник записи: [TR24][OF]
Год издания: 2016
Издатель (лейбл): Club COMA Adelaide, Australia
Продолжительность: 1:01:46
Наличие сканов в содержимом раздачи: Front

Контейнер: FLAC (*.flac)
Тип рипа: tracks
Разрядность: 24/44
Формат: LPCM
Количество каналов: 2.0

Источник (релизер): Bandcamp

Лог проверки качества
foobar2000 1.3.3 / Dynamic Range Meter 1.1.1
log date: 2020-04-28 07:40:09

--------------------------------------------------------------------------------
Analyzed: Matthew Sheens / Matthew Sheens @ COMA 2016 07 25
--------------------------------------------------------------------------------

DR         Peak         RMS     Duration Track
--------------------------------------------------------------------------------
DR11      -0.31 dB   -13.88 dB      7:23 01-Rage Against the Dying of the Light
DR11      -0.31 dB   -15.40 dB      6:56 02-Names
DR11      -0.31 dB   -13.53 dB      7:22 03-A Midsummer Nightmare
DR12      -0.75 dB   -18.21 dB      4:00 04-Life Measured in Haircuts
DR10      -0.31 dB   -12.24 dB      7:09 05-Cumulonimbus Society
DR11      -0.31 dB   -14.01 dB      5:54 06-Cloud Appreciation Day
DR11      -0.31 dB   -15.06 dB      5:39 07-First Orbit
DR10      -0.31 dB   -13.45 dB      6:12 08-Last Poem
DR9       -0.31 dB   -13.13 dB      4:47 09-Interlude No. 2: Orbit
DR11      -0.31 dB   -13.93 dB      6:26 10-Depaysement
--------------------------------------------------------------------------------

Number of tracks:  10
Official DR value: DR11

Samplerate:        44100 Hz
Channels:          2
Bits per sample:   24
Bitrate:           1445 kbps
Codec:             FLAC
================================================================================
Any questions - support@pro-jazz.com. Есть вопросы - support@pro-jazz.com
18:41
223
Нет комментариев. Ваш будет первым!