Поиск

2016 Matt Bianco & New Cool Collective - The Things You Love {earMUSIC} [24-96]

2016 Matt Bianco & New Cool Collective - The Things You Love {earMUSIC} [24-96]
Стили:
Издатель (лейбл):
Треклист:

Формат записи/Источник записи: [TR24][OF]
Наличие водяных знаков: Нет
Год издания/переиздания диска: 2 декабря 2016
Место записи: Electric Monkey, Amsterdam, NL
Studio 150, Amsterdam, NL
Издатель (лейбл): earMUSIC
Продолжительность: 46:59
Наличие сканов в содержимом раздачи: Только обложка альбома
Контейнер: FLAC (*.flac)
Тип рипа: tracks
Разрядность: 24/96; 24/88.2
Формат: PCM
Количество каналов: 2.0
Note: Tracks #11 & 12 - 24/88.2
Источник: hdtracks.com

Треклист:
01. We Should Be Dancing (4:17)
02. The Things You Love (3:33)
03. Double Stich (4:16)
04. Do the Right Thing (3:42)
05. Don't Blame It on That Girl (3:33)
06. Count Me In (3:10)
07. Cry (feat. Elisabeth Troy) (4:24)
08. Breaking Out (4:10)
09. Bring It On (4:09)
10. Samba Italiano (3:03)
11. Breaking Out (Nicola Conte remix) (3:58)
12. Bring It On (Nicola Conte remix) (4:44)

 
Лог проверки качества
foobar2000 1.3.9 / Dynamic Range Meter 1.1.1
log date: 2018-05-31 22:48:40
--------------------------------------------------------------------------------
Analyzed: Matt Bianco & New Cool Collective / The Things You Love
--------------------------------------------------------------------------------
DR         Peak         RMS     Duration Track
--------------------------------------------------------------------------------
DR7       -0.10 dB    -8.00 dB      3:58 11-Breaking Out (Nicola Conte remix)
DR6       -0.41 dB    -7.67 dB      4:44 12-Bring It On (Nicola Conte remix)
--------------------------------------------------------------------------------
Number of tracks:  2
Official DR value: DR6
Samplerate:        88200 Hz
Channels:          2
Bits per sample:   24
Bitrate:           2625 kbps
Codec:             FLAC
================================================================================
--------------------------------------------------------------------------------
Analyzed: Matt Bianco & New Cool Collective / The Things You Love
--------------------------------------------------------------------------------
DR         Peak         RMS     Duration Track
--------------------------------------------------------------------------------
DR14      -0.84 dB   -17.03 dB      4:17 01-We Should Be Dancing
DR14      -0.84 dB   -16.54 dB      3:33 02-The Things You Love
DR13      -1.50 dB   -17.80 dB      4:16 03-Double Stich
DR13      -0.84 dB   -17.51 dB      3:42 04-Do the Right Thing
DR14      -1.33 dB   -17.07 dB      3:33 05-Don't Blame It on That Girl
DR13      -2.57 dB   -18.48 dB      3:10 06-Count Me In
DR13      -1.08 dB   -16.05 dB      4:24 07-Cry (feat. Elisabeth Troy)
DR14      -1.59 dB   -16.96 dB      4:10 08-Breaking Out
DR13      -1.94 dB   -16.41 dB      4:09 09-Bring It On
DR12      -2.19 dB   -16.48 dB      3:03 10-Samba Italiano
--------------------------------------------------------------------------------
Number of tracks:  10
Official DR value: DR13
Samplerate:        96000 Hz
Channels:          2
Bits per sample:   24
Bitrate:           2584 kbps
Codec:             FLAC
================================================================================

 

Приватный:
Нет (DHT включён)
Размер:
873.09 Мб (915,500,963 байт) » файлов: 16
Участники:
9 раздают, 0 качают (9 участников всего)
Внешние участники:
9 раздают, 3 качают (12 участников всего) [ Обновить ]
Нет сидеров - пишите личное сообщение M0p94ok. Не нравятся торренты? Участники группы Pro-jazz Club могут заказать прямую ссылку на скачивание из облака.
No seeders - write a personal message to M0p94ok. Don't like torrents? Members of Pro-jazz Club group can order a direct download link from the cloud.
21:48
156
Нет комментариев. Ваш будет первым!