Поиск

2016 Incognito - In Search Of Better Days {Shanachie 5440}

2016 Incognito - In Search Of Better Days {Shanachie 5440}
Страна-производитель диска (релиза):
Russia
Дата издания диска:
24 июня 2016
Издатель (лейбл):
Номер по каталогу:
5440
Носитель:
CD
Битрейт аудио:
lossless
Аудиокодек:
FLAC (*.flac)
Тип рипа:
image+.cue
Время звучания:
01:15:16
Наличие сканов:
  • да
Релизёр (источник):
RedHotBlues

Треклист:

01. Love Born In Flames [0:04:22.27]
02. Just Say Nothing [0:04:41.10]
03. Everyday Grind [0:06:06.69]
04. Racing Through The Bends [0:04:07.62]
05. Love's Revival [0:04:45.06]
06. Selfishly [0:04:58.17]
07. Love Be The Messenger [0:04:26.06]
08. I See The Light [0:03:29.32]
09. Echoes Of Utopia [0:06:50.24]
10. Move It Up [0:05:10.27]
11. Crystal Walls [0:03:31.27]
12. Bridges Of Fire [0:06:26.51]
13. All I Ever Wanted [0:04:17.39]
14. Better Days [0:07:09.06]
15. Liberation Groove [0:04:51.69]

Состав:
  • Avery Sunshine Piano (Grand), Vocals (Background)
  • Bluey Bass, Brass Arrangement, Fender Rhodes, Guitar, Piano (Electric), Piano (Grand), Producer, Synthesizer, Vocal Arrangement, Vocals, Vocals (Background)
  • Paul Booth Flute, Sax (Soprano), Sax (Tenor)
  • Richard Bull Bass, Composer, Drums, Engineer, Mixing, Percussion, Producer, Sound Effects
  • João Caetano Bongos, Congas, Drums (Snare), Finger Snaps, Foot Stomping, Handclapping, Microphone, Percussion, Roto Toms, Timbales
  • Matt Cooper Clavinet, Engineer, Fender Rhodes, Moog Synthesizer, Piano, Piano (Electric), Piano (Grand), Producer, Solina, Synthesizer
  • Sulene Fleming Vocals (Background)
  • Sid Gauld Brass Arrangement, Flugelhorn, Trumpet
  • Mo Hausler Engineer, Mastering, Mixing
  • Vanessa Haynes Vocal Arrangement, Vocals, Vocals (Background)
  • Tomoyasu Hotei Composer, Guitar
  • Jim Hunt Sax (Tenor)
  • Francis Hylton Bass, Composer
  • Imaani Vocals, Vocals (Background)
  • Katie Leone Vocals, Vocals (Background)
  • Jody Linscott Congas, Percussion, Shaker, Tambourine, Tambura
  • Vula Malinga Vocals, Vocals (Background)
  • Maysa Vocals, Vocals (Background)
  • Francesco Mendolia Composer, Drums, Drums (Snare), Foot Stomping, Handclapping
  • Trevor Mires Brass, Brass Arrangement, Composer, Sousaphone, Trombone, Woodwind Arrangement
  • Tony Momrelle Vocal Arrangement, Vocals, Vocals (Background)
  • Ski Oakenfull Drums, Engineer, Keyboards, Mixing, Percussion, Producer, Synthesizer Bass
  • Joe Rodgers Engineer
  • Andy Ross Flute, Sax (Alto), Sax (Tenor)
  • Francisco Sales Amplifiers, Composer, Guitar, Guitar (Acoustic), Guitar (Electric), Strings
  • Richard Spaven Composer, Drums, Shaker
  • Alistair White Soloist, Trombone
  • Stuart Zender Bass, Composer, Engineer, Guitar (Rhythm), Keyboards, Producer
Лог создания рипа
Exact Audio Copy V1.1 from 23. June 2015
Отчёт EAC об извлечении, выполненном 2. августа 2016, 14:19
Incognito / In Search Of Better Days
Дисковод: ATAPI iHAS122 C Adapter: 1 ID: 1
Режим чтения : Достоверность
Использование точного потока : Да
Отключение кэша аудио : Да
Использование указателей C2 : Нет
Коррекция смещения при чтении : 6
Способность читать области Lead-in и Lead-out : Нет
Заполнение пропущенных сэмплов тишиной : Да
Удаление блоков с тишиной в начале и конце : Нет
При вычислениях CRC использовались нулевые сэмплы : Да
Интерфейс : Встроенный Win32-интерфейс для Win NT/2000
Выходной формат : Пользовательский кодировщик
Выбранный битрейт : 768 kBit/s
Качество : Высокий
Добавление ID3-тега : Нет
Утилита сжатия : C:\Program Files\Exact Audio Copy\FLAC\FLAC.EXE
Дополнительные параметры : -6 -V -T "ARTIST=%artist%" -T "TITLE=%title%" -T "ALBUM=%albumtitle%" -T "DATE=%year%" -T "TRACKNUMBER=%tracknr%" -T "GENRE=%genre%" -T "COMMENT=%comment%" -T "BAND=%albuminterpret%" -T "ALBUMARTIST=%albuminterpret%" -T "COMPOSER=%composer%" %haslyrics%--tag-from-file=LYRICS="%lyricsfile%"%haslyrics% -T "DISCNUMBER=%cdnumber%" -T "TOTALDISCS=%totalcds%" -T "TOTALTRACKS=%numtracks%" %hascover%--picture="%coverfile%"%hascover% %source% -o %dest%
TOC извлечённого CD Трек | Старт | Длительность | Начальный сектор | Конечный сектор --------------------------------------------------------------------- 1 | 0:00.00 | 4:22.27 | 0 | 19676 2 | 4:22.27 | 4:41.10 | 19677 | 40761 3 | 9:03.37 | 6:06.69 | 40762 | 68280 4 | 15:10.31 | 4:07.62 | 68281 | 86867 5 | 19:18.18 | 4:45.06 | 86868 | 108248 6 | 24:03.24 | 4:58.17 | 108249 | 130615 7 | 29:01.41 | 4:26.06 | 130616 | 150571 8 | 33:27.47 | 3:29.32 | 150572 | 166278 9 | 36:57.04 | 6:50.24 | 166279 | 197052 10 | 43:47.28 | 5:10.27 | 197053 | 220329 11 | 48:57.55 | 3:31.27 | 220330 | 236181 12 | 52:29.07 | 6:26.51 | 236182 | 265182 13 | 58:55.58 | 4:17.39 | 265183 | 284496 14 | 63:13.22 | 7:09.06 | 284497 | 316677 15 | 70:22.28 | 4:51.69 | 316678 | 338571
Характеристики диапазона извлечения и сообщения об ошибках
Выбранный диапазон Имя файла C:\Users\TITANIUM\Desktop\Incognito - In Search Of Better Days - 2016 - 75'16''\Incognito - In Search Of Better Days.wav Пиковый уровень 99.0 % Скорость извлечения 9.4 X Качество диапазона 100.0 % CRC теста D23F7A31 CRC копии D23F7A31 Копирование... OK
Ошибок не произошло
Конец отчёта
---- CUETools DB Plugin V2.1.6
[CTDB TOCID: uipZYUqahp3DLLzkHFjNhYKg8DQ-] found
Submit result: uipZYUqahp3DLLzkHFjNhYKg8DQ- has been confirmed
Track | CTDB Status 1 | (7/7) Accurately ripped 2 | (7/7) Accurately ripped 3 | (7/7) Accurately ripped 4 | (7/7) Accurately ripped 5 | (7/7) Accurately ripped 6 | (7/7) Accurately ripped 7 | (7/7) Accurately ripped 8 | (7/7) Accurately ripped 9 | (7/7) Accurately ripped 10 | (7/7) Accurately ripped 11 | (7/7) Accurately ripped 12 | (7/7) Accurately ripped 13 | (7/7) Accurately ripped 14 | (7/7) Accurately ripped 15 | (7/7) Accurately ripped
==== Контрольная сумма отчёта A400EC25F66E1683F8BF22F598892F6DC48CFC42A5D7E09BA0E4E05A964435BD ====
Содержание индексной карты (.CUE)
REM GENRE "Acid Jazz"
REM DATE 2016
REM DISCID D011A20F
REM COMMENT "ExactAudioCopy v1.1"
PERFORMER "Incognito"
TITLE "In Search Of Better Days"
FILE "Incognito - In Search Of Better Days.flac" WAVE TRACK 01 AUDIO TITLE "Love Born In Flames" PERFORMER "Incognito" INDEX 01 00:00:00 TRACK 02 AUDIO TITLE "Just Say Nothing" PERFORMER "Incognito" INDEX 01 04:22:27 TRACK 03 AUDIO TITLE "Everyday Grind" PERFORMER "Incognito" INDEX 01 09:03:37 TRACK 04 AUDIO TITLE "Racing Through The Bends" PERFORMER "Incognito" INDEX 01 15:10:31 TRACK 05 AUDIO TITLE "Love's Revival" PERFORMER "Incognito" INDEX 01 19:18:18 TRACK 06 AUDIO TITLE "Selfishly" PERFORMER "Incognito" INDEX 01 24:03:24 TRACK 07 AUDIO TITLE "Love Be The Messenger" PERFORMER "Incognito" INDEX 01 29:01:41 TRACK 08 AUDIO TITLE "I See The Light" PERFORMER "Incognito" INDEX 01 33:27:47 TRACK 09 AUDIO TITLE "Echoes Of Utopia" PERFORMER "Incognito" INDEX 01 36:57:04 TRACK 10 AUDIO TITLE "Move It Up" PERFORMER "Incognito" INDEX 01 43:47:28 TRACK 11 AUDIO TITLE "Crystal Walls" PERFORMER "Incognito" INDEX 01 48:57:55 TRACK 12 AUDIO TITLE "Bridges Of Fire" PERFORMER "Incognito" INDEX 01 52:29:07 TRACK 13 AUDIO TITLE "All I Ever Wanted" PERFORMER "Incognito" INDEX 01 58:55:58 TRACK 14 AUDIO TITLE "Better Days" PERFORMER "Incognito" INDEX 01 63:13:22 TRACK 15 AUDIO TITLE "Liberation Groove" PERFORMER "Incognito" INDEX 01 70:22:28
Лог проверки качества
-----------------------
DON'T MODIFY THIS FILE
-----------------------
PERFORMER: auCDtect Task Manager, ver. 1.5.1RC4 build 1.5.1.5
Copyright (c) 2008-2010 y-soft. All rights reserved
http://y-soft.org
ANALYZER: auCDtect: CD records authenticity detector, version 0.8.2
Copyright (c) 2004 Oleg Berngardt. All rights reserved.
Copyright (c) 2004 Alexander Djourik. All rights reserved.
FILE: Incognito - In Search Of Better Days.flac Size: 528638075 Hash: C90897A3DE6AF245B2F48DECC60D2890 Accuracy: -m0 Conclusion: CDDA 100% Signature: 3C55D1D5E435A35D6F963E56F318E03B90D6D8FA
Приватный:
Нет (DHT включён)
Размер:
645.51 Мб (676,863,479 байт) » файлов: 13
Участники:
0 раздают, 0 качают (0 участников всего)
Внешние участники:
8 раздают, 2 качают (10 участников всего) [ Обновить ]
13:53
60
RSS
Нет комментариев. Ваш будет первым!