Вы используете незарегистрированную версию компонента "Вкладки"!

Поиск

2016 George Robert - George Robert Plays Michel Legrand {Claves} [24-48]

2016 George Robert - George Robert Plays Michel Legrand {Claves} [24-48]
Стили:
Дата записи диска:
26 июля 2016
Место записи:
Oceanview Studios in West Vancouver, BC, Canada
Доп. инфо:

Формат записи/Источник записи: [TR24][OF]
Наличие водяных знаков: Нет
Год издания/переиздания диска: 2016
Издатель (лейбл): Claves Records
Продолжительность: 54:32
Наличие сканов в содержимом раздачи: Буклет PDF

Контейнер: FLAC (*.flac)
Тип рипа: tracks
Разрядность: 24/48
Формат: PCM
Количество каналов: 2.0

Источник: qobuz.com

Лог проверки качества
foobar2000 1.3.9 / Dynamic Range Meter 1.1.1
log date: 2019-12-28 09:13:23

--------------------------------------------------------------------------------
Analyzed: George Robert / George Robert Plays Michel Legrand
--------------------------------------------------------------------------------

DR         Peak         RMS     Duration Track
--------------------------------------------------------------------------------
DR12      -0.01 dB   -14.50 dB      4:56 01-Watch What Happens (From “The Umbrellas of Cherbourg”, 1964)
DR13       0.00 dB   -15.58 dB      5:36 02-How Do You Keep The Music Playing (From “Best Friends”, 1982)
DR12       0.00 dB   -14.78 dB      5:12 03-What Are You Doing The Rest Of Your Life (From “Happy Ending”, 1969)
DR11       0.00 dB   -14.47 dB      4:35 04-The Summer Knows (From “Summer of 42”, 1971)
DR11       0.00 dB   -13.86 dB      4:18 05-Once Upon A Summertime (1956)
DR12       0.00 dB   -14.07 dB      5:52 06-You Must Believe In Spring (From “The Young Girls of Rochefort”, 1967)
DR11       0.00 dB   -14.03 dB      4:55 07-The Windmills Of Your Mind (From “The Thomas Crown Affair”, 1968)
DR12      -0.01 dB   -14.24 dB      5:30 08-I Will Wait For You (From “The Umbrellas of Cherbourg”, 1964)
DR11      -0.06 dB   -14.76 dB      5:42 09-The Way He Makes Me Feel (From “Yentl”, 1983)
DR10       0.00 dB   -13.44 dB      4:47 10-Brian’s Song (From “Brian’s Song”, 1971)
DR12       0.00 dB   -15.10 dB      3:11 11-Papa, Can You Hear Me (From “Yentl”, 1983)
--------------------------------------------------------------------------------

Number of tracks:  11
Official DR value: DR11

Samplerate:        48000 Hz
Channels:          2
Bits per sample:   24
Bitrate:           1659 kbps
Codec:             FLAC
================================================================================
Any questions - support@pro-jazz.com. Есть вопросы - support@pro-jazz.com
11:35
221
Нет комментариев. Ваш будет первым!