Поиск

2016 Eric Alexander Trio - Just One Of Those Things {Venus VHGD-188} [DSD64 ISO]

2016 Eric Alexander Trio - Just One Of Those Things {Venus VHGD-188} [DSD64 ISO]
Дата записи диска:
27 сентября 2016
Место записи:
Trading 8's Studio, New York City, NY, USA
Дата издания диска:
21 декабря 2016
Издатель (лейбл):
Номер по каталогу:
VHGD188
Носитель:
SACD
Формат:
DSD
Тип рипа:
image
Контейнер:
ISO (*.iso)
Количество каналов:
2.0
Разрядность/ЧД:
64 (2,8 MHz/1 Bit)
Битрейт аудио:
lossless
Время звучания:
00:56:07
Наличие сканов:
да

Треклист:

1. You'd Be So Nice to Come Home To  06:47
2. Just One of Those Things  06:44
3. Wise One  06:19
4. Beautiful Love  06:47
5. You Say You Care  06:42
6. We've Only Just Begun  04:56
7. Stardust  07:55
8. Russian Lullaby  03:54
9. Bessie's Blues  05:58

Состав:
  • Eric Alexander — tenor sax
  • Dezron Dougras — bass
  • Neal Smith — drums
Лог проверки качества
foobar2000 1.6.4 / Dynamic Range Meter 1.1.1
log date: 2021-07-13 16:35:35

--------------------------------------------------------------------------------
Analyzed: ERIC ALEXANDER TRIO / Just One Of Those Things
--------------------------------------------------------------------------------

DR         Peak         RMS     Duration Track
--------------------------------------------------------------------------------
DR7       -4.76 dB   -13.68 dB      6:47 01-You'd Be So Nice To Come Home To
DR7       -4.56 dB   -13.20 dB      6:43 02-Just One Of Those Things
DR7       -4.54 dB   -14.54 dB      6:18 03-Wise One
DR7       -4.80 dB   -13.57 dB      6:46 04-Beautiful Love
DR7       -4.39 dB   -13.56 dB      6:40 05-You Say You Care
DR8       -4.97 dB   -15.49 dB      4:55 06-We've Only Just Begun
DR9       -4.58 dB   -15.12 dB      7:54 07-Stardust
DR8       -4.52 dB   -14.07 dB      3:52 08-Russian Lullaby
DR7       -4.94 dB   -13.73 dB      6:01 09-Bessie's Blues
--------------------------------------------------------------------------------

Number of tracks:  9
Official DR value: DR8

Samplerate:        2822400 Hz / PCM Samplerate: 88200 Hz
Channels:          2
Bits per sample:   1
Bitrate:           5645 kbps
Codec:             DSD64
================================================================================
По всем вопросам пишите личное сообщение пользователю M0p94ok.
20:37
333
Нет комментариев. Ваш будет первым!