Поиск

2016 Dusty Springfield - Reputation (Expanded Collector's Edition) {Strike Force WSFE 048T} [2CD]

2016 Dusty Springfield - Reputation (Expanded Collector's Edition) {Strike Force WSFE 048T} [2CD]
Доп. инфо:

Носитель: CD
Год издания: 2016
Издатель (лейбл): Strike Force Entertainment
Номер по каталогу: WSFE 048T
Аудиокодек: FLAC (*.flac)
Тип рипа: tracks+.cue
Битрейт аудио: lossless
Продолжительность: 02:33:48
Источник (релизер): BlondStyle
Наличие сканов в содержимом раздачи: нет 

Лог создания рипа
CD1
Exact Audio Copy V1.1 from 23. June 2015

EAC extraction logfile from 23. September 2016, 23:47

Dusty Springfield / Reputation (Expanded Collector's Edition)

Used drive  : Optiarc BD ROM BC-5500S   Adapter: 1  ID: 1

Read mode               : Secure
Utilize accurate stream : Yes
Defeat audio cache      : Yes
Make use of C2 pointers : No

Read offset correction                      : 48
Overread into Lead-In and Lead-Out          : No
Fill up missing offset samples with silence : Yes
Delete leading and trailing silent blocks   : No
Null samples used in CRC calculations       : Yes
Used interface                              : Native Win32 interface for Win NT & 2000
Gap handling                                : Appended to previous track

Used output format              : User Defined Encoder
Selected bitrate                : 768 kBit/s
Quality                         : High
Add ID3 tag                     : No
Command line compressor         : C:\Program Files (x86)\Exact Audio Copy\FLAC\FLAC.EXE
Additional command line options : -6 -V -T "ARTIST=%artist%" -T "TITLE=%title%" -T "ALBUM=%albumtitle%" -T "DATE=%year%" -T "TRACKNUMBER=%tracknr%" -T "GENRE=%genre%" -T "COMMENT=%comment%" -T "BAND=%albuminterpret%" -T "ALBUMARTIST=%albuminterpret%" -T "COMPOSER=%composer%" %haslyrics%--tag-from-file=LYRICS="%lyricsfile%"%haslyrics% -T "DISCNUMBER=%cdnumber%" -T "TOTALDISCS=%totalcds%" -T "TOTALTRACKS=%numtracks%" %hascover%--picture="%coverfile%"%hascover% %source% -o %dest%

TOC of the extracted CD

     Track |   Start  |  Length  | Start sector | End sector
    ---------------------------------------------------------
        1  |  0:00.00 |  4:13.33 |         0    |    19007
        2  |  4:13.33 |  3:57.35 |     19008    |    36817
        3  |  8:10.68 |  4:09.27 |     36818    |    55519
        4  | 12:20.20 |  3:05.13 |     55520    |    69407
        5  | 15:25.33 |  3:49.36 |     69408    |    86618
        6  | 19:14.69 |  4:22.55 |     86619    |   106323
        7  | 23:37.49 |  4:55.25 |    106324    |   128473
        8  | 28:32.74 |  4:41.58 |    128474    |   149606
        9  | 33:14.57 |  2:48.41 |    149607    |   162247
       10  | 36:03.23 |  6:49.22 |    162248    |   192944
       11  | 42:52.45 |  8:09.41 |    192945    |   229660
       12  | 51:02.11 |  5:55.25 |    229661    |   256310
       13  | 56:57.36 |  7:12.25 |    256311    |   288735
       14  | 64:09.61 |  6:32.08 |    288736    |   318143
       15  | 70:41.69 |  5:45.59 |    318144    |   344077

Track  1

     Filename F:\Dusty Springfield - Reputation (Expanded Collector's Edition) (2016) (flac)\Disc 1\01 Reputation.wav

     Pre-gap length  0:00:02.00

     Peak level 99.9 %
     Extraction speed 2.0 X
     Track quality 100.0 %
     Test CRC 986077D1
     Copy CRC 986077D1
     Track not present in AccurateRip database
     Copy OK

Track  2

     Filename F:\Dusty Springfield - Reputation (Expanded Collector's Edition) (2016) (flac)\Disc 1\02 Send It To Me.wav

     Pre-gap length  0:00:01.00

     Peak level 100.0 %
     Extraction speed 2.2 X
     Track quality 100.0 %
     Test CRC 6799F556
     Copy CRC 6799F556
     Track not present in AccurateRip database
     Copy OK

Track  3

     Filename F:\Dusty Springfield - Reputation (Expanded Collector's Edition) (2016) (flac)\Disc 1\03 Arrested By You.wav

     Pre-gap length  0:00:01.00

     Peak level 100.0 %
     Extraction speed 2.4 X
     Track quality 100.0 %
     Test CRC A97528D4
     Copy CRC A97528D4
     Track not present in AccurateRip database
     Copy OK

Track  4

     Filename F:\Dusty Springfield - Reputation (Expanded Collector's Edition) (2016) (flac)\Disc 1\04 Time Waits For No One.wav

     Pre-gap length  0:00:01.00

     Peak level 100.0 %
     Extraction speed 2.4 X
     Track quality 100.0 %
     Test CRC DA4FE333
     Copy CRC DA4FE333
     Track not present in AccurateRip database
     Copy OK

Track  5

     Filename F:\Dusty Springfield - Reputation (Expanded Collector's Edition) (2016) (flac)\Disc 1\05 Born This Way.wav

     Pre-gap length  0:00:01.00

     Peak level 100.0 %
     Extraction speed 2.6 X
     Track quality 100.0 %
     Test CRC 889E3391
     Copy CRC 889E3391
     Track not present in AccurateRip database
     Copy OK

Track  6

     Filename F:\Dusty Springfield - Reputation (Expanded Collector's Edition) (2016) (flac)\Disc 1\06 In Private.wav

     Pre-gap length  0:00:01.00

     Peak level 100.0 %
     Extraction speed 2.8 X
     Track quality 100.0 %
     Test CRC 2E5039C1
     Copy CRC 2E5039C1
     Track not present in AccurateRip database
     Copy OK

Track  7

     Filename F:\Dusty Springfield - Reputation (Expanded Collector's Edition) (2016) (flac)\Disc 1\07 Daydreaming.wav

     Pre-gap length  0:00:01.00

     Peak level 100.0 %
     Extraction speed 3.0 X
     Track quality 100.0 %
     Test CRC 89966D68
     Copy CRC 89966D68
     Track not present in AccurateRip database
     Copy OK

Track  8

     Filename F:\Dusty Springfield - Reputation (Expanded Collector's Edition) (2016) (flac)\Disc 1\08 Nothing Has Been Proved.wav

     Pre-gap length  0:00:01.00

     Peak level 100.0 %
     Extraction speed 3.2 X
     Track quality 100.0 %
     Test CRC CEA38652
     Copy CRC CEA38652
     Track not present in AccurateRip database
     Copy OK

Track  9

     Filename F:\Dusty Springfield - Reputation (Expanded Collector's Edition) (2016) (flac)\Disc 1\09 I Want To Stay Here.wav

     Pre-gap length  0:00:01.00

     Peak level 100.0 %
     Extraction speed 3.0 X
     Track quality 100.0 %
     Test CRC 401204F7
     Copy CRC 401204F7
     Track not present in AccurateRip database
     Copy OK

Track 10

     Filename F:\Dusty Springfield - Reputation (Expanded Collector's Edition) (2016) (flac)\Disc 1\10 Occupy Your Mind.wav

     Pre-gap length  0:00:01.00

     Peak level 100.0 %
     Extraction speed 3.5 X
     Track quality 100.0 %
     Test CRC 639DC0CE
     Copy CRC 639DC0CE
     Track not present in AccurateRip database
     Copy OK

Track 11

     Filename F:\Dusty Springfield - Reputation (Expanded Collector's Edition) (2016) (flac)\Disc 1\11 What Have I Done To Deserve This (Disco Mix).wav

     Pre-gap length  0:00:01.00

     Peak level 100.0 %
     Extraction speed 3.8 X
     Track quality 100.0 %
     Test CRC 7EC53B75
     Copy CRC 7EC53B75
     Track not present in AccurateRip database
     Copy OK

Track 12

     Filename F:\Dusty Springfield - Reputation (Expanded Collector's Edition) (2016) (flac)\Disc 1\12 Nothing Has Been Proved (Dance Mix).wav

     Pre-gap length  0:00:00.74

     Peak level 100.0 %
     Extraction speed 3.9 X
     Track quality 100.0 %
     Test CRC 34328885
     Copy CRC 34328885
     Track not present in AccurateRip database
     Copy OK

Track 13

     Filename F:\Dusty Springfield - Reputation (Expanded Collector's Edition) (2016) (flac)\Disc 1\13 In Private (12'' Version).wav

     Pre-gap length  0:00:01.00

     Peak level 100.0 %
     Extraction speed 4.1 X
     Track quality 100.0 %
     Test CRC BFAE73CD
     Copy CRC BFAE73CD
     Track not present in AccurateRip database
     Copy OK

Track 14

     Filename F:\Dusty Springfield - Reputation (Expanded Collector's Edition) (2016) (flac)\Disc 1\14 Reputation (Lots Of Fun 12'' Mix).wav

     Pre-gap length  0:00:01.00

     Peak level 100.0 %
     Extraction speed 3.5 X
     Track quality 99.9 %
     Test CRC 45A50361
     Copy CRC 45A50361
     Track not present in AccurateRip database
     Copy OK

Track 15

     Filename F:\Dusty Springfield - Reputation (Expanded Collector's Edition) (2016) (flac)\Disc 1\15 Arrested By You (Extended Version).wav

     Pre-gap length  0:00:01.00

     Peak level 99.9 %
     Extraction speed 4.3 X
     Track quality 100.0 %
     Test CRC 2984177F
     Copy CRC 2984177F
     Track not present in AccurateRip database
     Copy OK

None of the tracks are present in the AccurateRip database

No errors occurred

End of status report

---- CUETools DB Plugin V2.1.6

[CTDB TOCID: JmcfwQ0zBkgpUdbvCeMY5bMoiRA-] found
Submit result: JmcfwQ0zBkgpUdbvCeMY5bMoiRA- has been confirmed
Track | CTDB Status
  1   | (9/9) Accurately ripped
  2   | (9/9) Accurately ripped
  3   | (9/9) Accurately ripped
  4   | (9/9) Accurately ripped
  5   | (9/9) Accurately ripped
  6   | (9/9) Accurately ripped
  7   | (9/9) Accurately ripped
  8   | (9/9) Accurately ripped
  9   | (9/9) Accurately ripped
 10   | (9/9) Accurately ripped
 11   | (9/9) Accurately ripped
 12   | (9/9) Accurately ripped
 13   | (9/9) Accurately ripped
 14   | (9/9) Accurately ripped
 15   | (8/9) Accurately ripped

==== Log checksum F53A447E93AE67B0B43FEEB99486CF0CC89B42319DD629F059825457DCE0920B ====

CD2
Exact Audio Copy V1.1 from 23. June 2015

EAC extraction logfile from 24. September 2016, 0:37

Dusty Springfield / Reputation (Expanded Collector's Edition)

Used drive  : Optiarc BD ROM BC-5500S   Adapter: 1  ID: 1

Read mode               : Secure
Utilize accurate stream : Yes
Defeat audio cache      : Yes
Make use of C2 pointers : No

Read offset correction                      : 48
Overread into Lead-In and Lead-Out          : No
Fill up missing offset samples with silence : Yes
Delete leading and trailing silent blocks   : No
Null samples used in CRC calculations       : Yes
Used interface                              : Native Win32 interface for Win NT & 2000
Gap handling                                : Appended to previous track

Used output format              : User Defined Encoder
Selected bitrate                : 768 kBit/s
Quality                         : High
Add ID3 tag                     : No
Command line compressor         : C:\Program Files (x86)\Exact Audio Copy\FLAC\FLAC.EXE
Additional command line options : -6 -V -T "ARTIST=%artist%" -T "TITLE=%title%" -T "ALBUM=%albumtitle%" -T "DATE=%year%" -T "TRACKNUMBER=%tracknr%" -T "GENRE=%genre%" -T "COMMENT=%comment%" -T "BAND=%albuminterpret%" -T "ALBUMARTIST=%albuminterpret%" -T "COMPOSER=%composer%" %haslyrics%--tag-from-file=LYRICS="%lyricsfile%"%haslyrics% -T "DISCNUMBER=%cdnumber%" -T "TOTALDISCS=%totalcds%" -T "TOTALTRACKS=%numtracks%" %hascover%--picture="%coverfile%"%hascover% %source% -o %dest%

TOC of the extracted CD

     Track |   Start  |  Length  | Start sector | End sector
    ---------------------------------------------------------
        1  |  0:00.00 |  5:56.05 |         0    |    26704
        2  |  5:56.05 |  8:54.51 |     26705    |    66805
        3  | 14:50.56 |  3:57.56 |     66806    |    84636
        4  | 18:48.37 |  6:35.48 |     84637    |   114309
        5  | 25:24.10 |  4:34.74 |    114310    |   134933
        6  | 29:59.09 |  4:11.44 |    134934    |   153802
        7  | 34:10.53 |  5:37.51 |    153803    |   179128
        8  | 39:48.29 |  5:04.13 |    179129    |   201941
        9  | 44:52.42 |  6:30.61 |    201942    |   231252
       10  | 51:23.28 |  4:22.41 |    231253    |   250943
       11  | 55:45.69 |  3:44.14 |    250944    |   267757
       12  | 59:30.08 |  3:37.37 |    267758    |   284069
       13  | 63:07.45 |  5:55.11 |    284070    |   310705
       14  | 69:02.56 |  8:17.41 |    310706    |   348021

Track  1

     Filename F:\Dusty Springfield - Reputation (Expanded Collector's Edition) (2016) (flac)\Disc 2\01 Nothing Has Been Proved (Original Mix).wav

     Pre-gap length  0:00:02.00

     Peak level 99.9 %
     Extraction speed 2.2 X
     Track quality 100.0 %
     Test CRC 49332635
     Copy CRC 49332635
     Track not present in AccurateRip database
     Copy OK

Track  2

     Filename F:\Dusty Springfield - Reputation (Expanded Collector's Edition) (2016) (flac)\Disc 2\02 In Private (Remix).wav

     Pre-gap length  0:00:01.00

     Peak level 100.0 %
     Extraction speed 2.6 X
     Track quality 100.0 %
     Test CRC 1EA30223
     Copy CRC 1EA30223
     Track not present in AccurateRip database
     Copy OK

Track  3

     Filename F:\Dusty Springfield - Reputation (Expanded Collector's Edition) (2016) (flac)\Disc 2\03 In Private (Bonus Beats).wav

     Pre-gap length  0:00:01.00

     Peak level 100.0 %
     Extraction speed 2.6 X
     Track quality 100.0 %
     Test CRC BAAEF80C
     Copy CRC BAAEF80C
     Track not present in AccurateRip database
     Copy OK

Track  4

     Filename F:\Dusty Springfield - Reputation (Expanded Collector's Edition) (2016) (flac)\Disc 2\04 In Private (Dub).wav

     Pre-gap length  0:00:01.00

     Peak level 100.0 %
     Extraction speed 3.0 X
     Track quality 100.0 %
     Test CRC 2A9EA406
     Copy CRC 2A9EA406
     Track not present in AccurateRip database
     Copy OK

Track  5

     Filename F:\Dusty Springfield - Reputation (Expanded Collector's Edition) (2016) (flac)\Disc 2\05 Reputation (Lots Of Fun Single Mix).wav

     Pre-gap length  0:00:01.00

     Peak level 100.0 %
     Extraction speed 3.1 X
     Track quality 100.0 %
     Test CRC 23854231
     Copy CRC 23854231
     Track not present in AccurateRip database
     Copy OK

Track  6

     Filename F:\Dusty Springfield - Reputation (Expanded Collector's Edition) (2016) (flac)\Disc 2\06 Reputation (The Alternative Mix).wav

     Pre-gap length  0:00:01.00

     Peak level 100.0 %
     Extraction speed 3.2 X
     Track quality 100.0 %
     Test CRC ACBC39C7
     Copy CRC ACBC39C7
     Track not present in AccurateRip database
     Copy OK

Track  7

     Filename F:\Dusty Springfield - Reputation (Expanded Collector's Edition) (2016) (flac)\Disc 2\07 Reputation (Rep-U-Dub 1).wav

     Pre-gap length  0:00:01.00

     Peak level 100.0 %
     Extraction speed 3.5 X
     Track quality 100.0 %
     Test CRC 901B0610
     Copy CRC 901B0610
     Track not present in AccurateRip database
     Copy OK

Track  8

     Filename F:\Dusty Springfield - Reputation (Expanded Collector's Edition) (2016) (flac)\Disc 2\08 Reputation (Rep-U-Dub 2).wav

     Pre-gap length  0:00:01.00

     Peak level 100.0 %
     Extraction speed 3.6 X
     Track quality 100.0 %
     Test CRC 8D3BCF99
     Copy CRC 8D3BCF99
     Track not present in AccurateRip database
     Copy OK

Track  9

     Filename F:\Dusty Springfield - Reputation (Expanded Collector's Edition) (2016) (flac)\Disc 2\09 Born This Way (12'' Mix).wav

     Pre-gap length  0:00:01.00

     Peak level 100.0 %
     Extraction speed 3.8 X
     Track quality 100.0 %
     Test CRC 92679845
     Copy CRC 92679845
     Track not present in AccurateRip database
     Copy OK

Track 10

     Filename F:\Dusty Springfield - Reputation (Expanded Collector's Edition) (2016) (flac)\Disc 2\10 Any Other Fool.wav

     Pre-gap length  0:00:01.00

     Peak level 100.0 %
     Extraction speed 3.8 X
     Track quality 100.0 %
     Test CRC D4B526BB
     Copy CRC D4B526BB
     Track not present in AccurateRip database
     Copy OK

Track 11

     Filename F:\Dusty Springfield - Reputation (Expanded Collector's Edition) (2016) (flac)\Disc 2\11 When Love Turns To Blue.wav

     Pre-gap length  0:00:01.00

     Peak level 99.9 %
     Extraction speed 3.8 X
     Track quality 100.0 %
     Test CRC 0E3FCF22
     Copy CRC 0E3FCF22
     Track not present in AccurateRip database
     Copy OK

Track 12

     Filename F:\Dusty Springfield - Reputation (Expanded Collector's Edition) (2016) (flac)\Disc 2\12 Getting It Right.wav

     Pre-gap length  0:00:01.00

     Peak level 99.9 %
     Extraction speed 3.9 X
     Track quality 100.0 %
     Test CRC 7F8D2DF1
     Copy CRC 7F8D2DF1
     Track not present in AccurateRip database
     Copy OK

Track 13

     Filename F:\Dusty Springfield - Reputation (Expanded Collector's Edition) (2016) (flac)\Disc 2\13 Nothing Has Been Proved (Instrumental).wav

     Pre-gap length  0:00:01.00

     Peak level 100.0 %
     Extraction speed 4.2 X
     Track quality 100.0 %
     Test CRC 3822C581
     Copy CRC 3822C581
     Track not present in AccurateRip database
     Copy OK

Track 14

     Filename F:\Dusty Springfield - Reputation (Expanded Collector's Edition) (2016) (flac)\Disc 2\14 Daydreaming (12'' Master Edit).wav

     Pre-gap length  0:00:01.00

     Peak level 99.9 %
     Extraction speed 4.5 X
     Track quality 100.0 %
     Test CRC F1580877
     Copy CRC F1580877
     Track not present in AccurateRip database
     Copy OK

None of the tracks are present in the AccurateRip database

No errors occurred

End of status report

---- CUETools DB Plugin V2.1.6

[CTDB TOCID: CF.xPbNm9TX8GTleG3qy5hBufzY-] found
Submit result: CF.xPbNm9TX8GTleG3qy5hBufzY- has been confirmed
Track | CTDB Status
  1   | (8/8) Accurately ripped
  2   | (8/8) Accurately ripped
  3   | (8/8) Accurately ripped
  4   | (8/8) Accurately ripped
  5   | (8/8) Accurately ripped
  6   | (8/8) Accurately ripped
  7   | (8/8) Accurately ripped
  8   | (8/8) Accurately ripped
  9   | (8/8) Accurately ripped
 10   | (8/8) Accurately ripped
 11   | (8/8) Accurately ripped
 12   | (8/8) Accurately ripped
 13   | (8/8) Accurately ripped
 14   | (8/8) Accurately ripped

==== Log checksum 4C272B9D6086D6243838478D6D39585A85EEA2927096CFEF674D4C0559506E0B ====
Содержание индексной карты (.CUE)
CD1
REM GENRE Electronic
REM DATE 2016
REM DISCID DA11EB0F
REM COMMENT "ExactAudioCopy v1.1"
PERFORMER "Dusty Springfield"
TITLE "Reputation (Expanded Collector's Edition) (disc 1)"
FILE "01 Reputation.wav" WAVE
  TRACK 01 AUDIO
    TITLE "Reputation"
    PERFORMER "Dusty Springfield"
    ISRC GBAYE9000193
    FLAGS DCP
    INDEX 01 00:00:00
  TRACK 02 AUDIO
    TITLE "Send It To Me"
    PERFORMER "Dusty Springfield"
    ISRC GBAYE9000508
    FLAGS DCP
    INDEX 00 04:12:33
FILE "02 Send It To Me.wav" WAVE
    INDEX 01 00:00:00
  TRACK 03 AUDIO
    TITLE "Arrested By You"
    PERFORMER "Dusty Springfield"
    ISRC GBAYE9000196
    FLAGS DCP
    INDEX 00 03:56:35
FILE "03 Arrested By You.wav" WAVE
    INDEX 01 00:00:00
  TRACK 04 AUDIO
    TITLE "Time Waits For No One"
    PERFORMER "Dusty Springfield"
    ISRC GBAYE9000509
    FLAGS DCP
    INDEX 00 04:08:27
FILE "04 Time Waits For No One.wav" WAVE
    INDEX 01 00:00:00
  TRACK 05 AUDIO
    TITLE "Born This Way"
    PERFORMER "Dusty Springfield"
    ISRC GBAYE9000510
    FLAGS DCP
    INDEX 00 03:04:13
FILE "05 Born This Way.wav" WAVE
    INDEX 01 00:00:00
  TRACK 06 AUDIO
    TITLE "In Private"
    PERFORMER "Dusty Springfield"
    ISRC GBAYE8900059
    FLAGS DCP
    INDEX 00 03:48:36
FILE "06 In Private.wav" WAVE
    INDEX 01 00:00:00
  TRACK 07 AUDIO
    TITLE "Daydreaming"
    PERFORMER "Dusty Springfield"
    ISRC GBAYE9000199
    FLAGS DCP
    INDEX 00 04:21:55
FILE "07 Daydreaming.wav" WAVE
    INDEX 01 00:00:00
  TRACK 08 AUDIO
    TITLE "Nothing Has Been Proved"
    PERFORMER "Dusty Springfield"
    ISRC GBAYE8900067
    FLAGS DCP
    INDEX 00 04:54:25
FILE "08 Nothing Has Been Proved.wav" WAVE
    INDEX 01 00:00:00
  TRACK 09 AUDIO
    TITLE "I Want To Stay Here"
    PERFORMER "Dusty Springfield"
    ISRC GBAYE9000511
    FLAGS DCP
    INDEX 00 04:40:58
FILE "09 I Want To Stay Here.wav" WAVE
    INDEX 01 00:00:00
  TRACK 10 AUDIO
    TITLE "Occupy Your Mind"
    PERFORMER "Dusty Springfield"
    ISRC GBAYE9000512
    FLAGS DCP
    INDEX 00 02:47:41
FILE "10 Occupy Your Mind.wav" WAVE
    INDEX 01 00:00:00
  TRACK 11 AUDIO
    TITLE "What Have I Done To Deserve This? (Disco Mix)"
    PERFORMER "Dusty Springfield"
    ISRC GBAYE8700064
    FLAGS DCP
    INDEX 00 06:48:22
FILE "11 What Have I Done To Deserve This (Disco Mix).wav" WAVE
    INDEX 01 00:00:00
  TRACK 12 AUDIO
    TITLE "Nothing Has Been Proved (Dance Mix)"
    PERFORMER "Dusty Springfield"
    ISRC GBAYE8900620
    FLAGS DCP
    INDEX 00 08:08:42
FILE "12 Nothing Has Been Proved (Dance Mix).wav" WAVE
    INDEX 01 00:00:00
  TRACK 13 AUDIO
    TITLE "In Private (12' Version)"
    PERFORMER "Dusty Springfield"
    ISRC GBAYE8900620
    FLAGS DCP
    INDEX 00 05:54:25
FILE "13 In Private (12'' Version).wav" WAVE
    INDEX 01 00:00:00
  TRACK 14 AUDIO
    TITLE "Reputation (Lots Of Fun 12' Mix)"
    PERFORMER "Dusty Springfield"
    ISRC GBAYE9000783
    FLAGS DCP
    INDEX 00 07:11:25
FILE "14 Reputation (Lots Of Fun 12'' Mix).wav" WAVE
    INDEX 01 00:00:00
  TRACK 15 AUDIO
    TITLE "Arrested By You (Extended Version)"
    PERFORMER "Dusty Springfield"
    ISRC GBAYE9000778
    FLAGS DCP
    INDEX 00 06:31:08
FILE "15 Arrested By You (Extended Version).wav" WAVE
    INDEX 01 00:00:00

CD2
REM GENRE Electronic
REM DATE 2016
REM DISCID C812200E
REM COMMENT "ExactAudioCopy v1.1"
PERFORMER "Dusty Springfield"
TITLE "Reputation (Expanded Collector's Edition) (disc 2)"
FILE "01 Nothing Has Been Proved (Original Mix).wav" WAVE
  TRACK 01 AUDIO
    TITLE "Nothing Has Been Proved (Original Mix)"
    PERFORMER "Dusty Springfield"
    ISRC GBAYE1500990
    FLAGS DCP
    INDEX 01 00:00:00
  TRACK 02 AUDIO
    TITLE "In Private (Remix)"
    PERFORMER "Dusty Springfield"
    ISRC GBAYE8900391
    FLAGS DCP
    INDEX 00 05:55:05
FILE "02 In Private (Remix).wav" WAVE
    INDEX 01 00:00:00
  TRACK 03 AUDIO
    TITLE "In Private (Bonus Beats)"
    PERFORMER "Dusty Springfield"
    ISRC GBAYE8900389
    FLAGS DCP
    INDEX 00 08:53:51
FILE "03 In Private (Bonus Beats).wav" WAVE
    INDEX 01 00:00:00
  TRACK 04 AUDIO
    TITLE "In Private (Dub)"
    PERFORMER "Dusty Springfield"
    ISRC GBAYE8900390
    FLAGS DCP
    INDEX 00 03:56:56
FILE "04 In Private (Dub).wav" WAVE
    INDEX 01 00:00:00
  TRACK 05 AUDIO
    TITLE "Reputation (Lots Of Fun Single Mix)"
    PERFORMER "Dusty Springfield"
    ISRC GBAYE9000787
    FLAGS DCP
    INDEX 00 06:34:48
FILE "05 Reputation (Lots Of Fun Single Mix).wav" WAVE
    INDEX 01 00:00:00
  TRACK 06 AUDIO
    TITLE "Reputation (The Alternative Mix)"
    PERFORMER "Dusty Springfield"
    ISRC GBAYE9000786
    FLAGS DCP
    INDEX 00 04:33:74
FILE "06 Reputation (The Alternative Mix).wav" WAVE
    INDEX 01 00:00:00
  TRACK 07 AUDIO
    TITLE "Reputation (Rep-U-Dub 1)"
    PERFORMER "Dusty Springfield"
    ISRC GBAYE9000784
    FLAGS DCP
    INDEX 00 04:10:44
FILE "07 Reputation (Rep-U-Dub 1).wav" WAVE
    INDEX 01 00:00:00
  TRACK 08 AUDIO
    TITLE "Reputation (Rep-U-Dub 2)"
    PERFORMER "Dusty Springfield"
    ISRC GBAYE9000785
    FLAGS DCP
    INDEX 00 05:36:51
FILE "08 Reputation (Rep-U-Dub 2).wav" WAVE
    INDEX 01 00:00:00
  TRACK 09 AUDIO
    TITLE "Born This Way (12' Mix)"
    PERFORMER "Dusty Springfield"
    ISRC GBAYE9000779
    FLAGS DCP
    INDEX 00 05:03:13
FILE "09 Born This Way (12'' Mix).wav" WAVE
    INDEX 01 00:00:00
  TRACK 10 AUDIO
    TITLE "Any Other Fool"
    PERFORMER "Dusty Springfield"
    ISRC GBAYE9000513
    FLAGS DCP
    INDEX 00 06:29:61
FILE "10 Any Other Fool.wav" WAVE
    INDEX 01 00:00:00
  TRACK 11 AUDIO
    TITLE "When Love Turns To Blue"
    PERFORMER "Dusty Springfield"
    ISRC GBAYE9000514
    FLAGS DCP
    INDEX 00 04:21:41
FILE "11 When Love Turns To Blue.wav" WAVE
    INDEX 01 00:00:00
  TRACK 12 AUDIO
    TITLE "Getting It Right"
    PERFORMER "Dusty Springfield"
    ISRC GBAYE9000515
    FLAGS DCP
    INDEX 00 03:43:14
FILE "12 Getting It Right.wav" WAVE
    INDEX 01 00:00:00
  TRACK 13 AUDIO
    TITLE "Nothing Has Been Proved (Instrumental)"
    PERFORMER "Dusty Springfield"
    ISRC GBAYE8900621
    FLAGS DCP
    INDEX 00 03:36:37
FILE "13 Nothing Has Been Proved (Instrumental).wav" WAVE
    INDEX 01 00:00:00
  TRACK 14 AUDIO
    TITLE "Daydreaming (12' Master Edit)"
    PERFORMER "Dusty Springfield"
    ISRC GBAYE1501099
    FLAGS DCP
    INDEX 00 05:54:11
FILE "14 Daydreaming (12'' Master Edit).wav" WAVE
    INDEX 01 00:00:00
No seeders - write personal message to M0p94ok. Any questions - support@pro-jazz.com.
Нет сидеров - пишите в личку M0p94ok. Есть вопросы - support@pro-jazz.com
03:02
141
Нет комментариев. Ваш будет первым!