Поиск

2016 Dan Nimmer Trio - Kelly Blue {Venus} [DSD64 ISO]

2016 Dan Nimmer Trio - Kelly Blue {Venus} [DSD64 ISO]
Стили:
Дата записи диска:
25 мая - 26 мая 2006
Место записи:
The Studio, New York City, NY, USA
Издатель (лейбл):
Номер по каталогу:
VHGD-160
Носитель:
SACD
Формат:
DSD
Тип рипа:
image
Контейнер:
ISO (*.iso)
Количество каналов:
2.0
Разрядность/ЧД:
64 (2,8 MHz/1 Bit)
Битрейт аудио:
lossless
Время звучания:
00:56:53
Наличие сканов:
только обложка

01. No Blues  05:29
02. Brimsha Man  05:43
03. On A Clear Day  03:57
04. Quick Jump  02:46
05. Close Your Eyes  05:09
06. Eleanor  05:16
07. Kelly Blue  05:09
08. On The Trail  05:56
09. If You Could See Me Now  06:04
10. Autumn Leaves  05:21
11. Temperance  06:49

Состав:
  • Dan Nimmer — piano
  • John Webber — bass
  • Jimmy Cobb — drums
Лог проверки качества
foobar2000 1.6.7 / Dynamic Range Meter 1.1.1
log date: 2021-11-06 19:41:43
--------------------------------------------------------------------------------
Analyzed: DAN NIMMER TRIO / Kelly Blue
--------------------------------------------------------------------------------
DR         Peak         RMS     Duration Track
--------------------------------------------------------------------------------
DR7       -4.30 dB   -13.59 dB      5:24 01-No Blues
DR8       -4.87 dB   -14.86 dB      5:38 02-Brimsha Man
DR8       -4.40 dB   -13.93 dB      3:52 03-On A Clear Day
DR6       -4.83 dB   -12.94 dB      2:41 04-Quick Jump
DR8       -4.93 dB   -14.51 dB      5:04 05-Close Your Eyes
DR9       -4.79 dB   -16.20 dB      5:11 06-Eleanor
DR9       -4.66 dB   -15.63 dB      5:04 07-Kelly Blue
DR9       -4.95 dB   -16.24 dB      5:51 08-On The Trail
DR11      -4.98 dB   -19.34 dB      5:59 09-If You Could See Me Now
DR10      -4.89 dB   -17.59 dB      5:16 10-Autumn Leaves
DR8       -4.72 dB   -14.13 dB      6:49 11-Temperance
--------------------------------------------------------------------------------
Number of tracks:  11
Official DR value: DR8
Samplerate:        2822400 Hz / PCM Samplerate: 88200 Hz
Channels:          2
Bits per sample:   1
Bitrate:           5645 kbps
Codec:             DSD64
================================================================================
Скачивание доступно после регистрации!!
Приватный:
Нет (DHT включён)
Размер:
3.51 Гб (3,770,675,393 байт) » файлов: 19
Участники:
0 раздают, 0 качают (0 участников всего)
Внешние участники:
3 раздают, 1 качают (4 участников всего) [ Обновить ]
20:07
421
Нет комментариев. Ваш будет первым!