Поиск

2016 Ben L'Oncle Soul - Under My Skin {Blue Note} [CD]

2016 Ben L'Oncle Soul - Under My Skin {Blue Note} [CD]
Стили:
Издатель (лейбл):
Треклист:
Жанр: Soul, Vocal Jazz
Страна-производитель диска: Japan
Год издания: Nov. 2016
Издатель (лейбл): Blue Note Records
Номер по каталогу: UCCM-1239
Страна исполнителя (группы): France
Аудиокодек: FLAC (*.flac)
Тип рипа: tracks+.cue
Битрейт аудио: lossless
Продолжительность: 57:43
Источник (релизер): спасибо thezabs
Наличие сканов: да
Треклист:
01. It Was A Very Good Year
02. All The Way
03. Fly Me To The Moon
04. The Good Life
05. Moonlight Serenade
06. I Love Paris
07. My Way
08. New York New York
09. The Way You Look Tonight
10. I've Got You Under My Skin
11. Witchcraft
bonus tracks
12. All The Way (acoustic version)
13. I've Got You Under My Skin (acoustic version)
 
Лог создания рипа
Exact Audio Copy V1.3 from 2. September 2016
EAC extraction logfile from 15. January 2017, 15:49
Ben L'Oncle Soul / Under My Skin
Used drive  : PLEXTOR DVDR   PX-891SAW   Adapter: 1  ID: 0
Read mode               : Secure
Utilize accurate stream : Yes
Defeat audio cache      : Yes
Make use of C2 pointers : No
Read offset correction                      : 48
Overread into Lead-In and Lead-Out          : No
Fill up missing offset samples with silence : Yes
Delete leading and trailing silent blocks   : No
Null samples used in CRC calculations       : Yes
Used interface                              : Native Win32 interface for Win NT & 2000
Gap handling                                : Appended to previous track
Used output format              : User Defined Encoder
Selected bitrate                : 1024 kBit/s
Quality                         : High
Add ID3 tag                     : No
Command line compressor         : C:\Program Files (x86)\Exact Audio Copy\Flac\flac.exe
Additional command line options : -8 -V -T "ARTIST=%artist%" -T "TITLE=%title%" -T "ALBUM=%albumtitle%" -T "DATE=%year%" -T "TRACKNUMBER=%tracknr%" -T "GENRE=%genre%" -T "PERFORMER=%albuminterpret%" -T "COMPOSER=%composer%" %haslyrics%--tag-from-file=LYRICS="%lyricsfile%"%haslyrics% -T "ALBUMARTIST=%albumartist%" -T "DISCNUMBER=%cdnumber%" -T "TOTALDISCS=%totalcds%" -T "TOTALTRACKS=%numtracks%" -T "COMMENT=%comment%" %source% -o %dest%
TOC of the extracted CD
     Track |   Start  |  Length  | Start sector | End sector
    ---------------------------------------------------------
        1  |  0:00.00 |  4:20.15 |         0    |    19514
        2  |  4:20.15 |  3:41.41 |     19515    |    36130
        3  |  8:01.56 |  3:51.04 |     36131    |    53459
        4  | 11:52.60 |  4:13.03 |     53460    |    72437
        5  | 16:05.63 |  5:26.01 |     72438    |    96888
        6  | 21:31.64 |  3:27.65 |     96889    |   112478
        7  | 24:59.54 |  6:10.51 |    112479    |   140279
        8  | 31:10.30 |  4:32.19 |    140280    |   160698
        9  | 35:42.49 |  3:54.66 |    160699    |   178314
       10  | 39:37.40 |  4:41.30 |    178315    |   199419
       11  | 44:18.70 |  4:39.50 |    199420    |   220394
       12  | 48:58.45 |  3:09.05 |    220395    |   234574
       13  | 52:07.50 |  5:48.51 |    234575    |   260725
Track  1
     Filename D:\Rips\01 - It Was A Very Good Year.wav
     Pre-gap length  0:00:02.00
     Peak level 97.7 %
     Extraction speed 4.4 X
     Track quality 100.0 %
     Test CRC 9D9E7AC6
     Copy CRC 9D9E7AC6
     Track not present in AccurateRip database
     Copy OK
Track  2
     Filename D:\Rips\02 - All The Way.wav
     Peak level 97.7 %
     Extraction speed 4.9 X
     Track quality 100.0 %
     Test CRC 55E882CB
     Copy CRC 55E882CB
     Track not present in AccurateRip database
     Copy OK
Track  3
     Filename D:\Rips\03 - Fly Me To The Moon.wav
     Pre-gap length  0:00:01.28
     Peak level 97.7 %
     Extraction speed 3.6 X
     Track quality 99.9 %
     Test CRC 39B0BE64
     Copy CRC 39B0BE64
     Track not present in AccurateRip database
     Copy OK
Track  4
     Filename D:\Rips\04 - The Good Life.wav
     Pre-gap length  0:00:00.18
     Peak level 97.7 %
     Extraction speed 5.7 X
     Track quality 100.0 %
     Test CRC BD211468
     Copy CRC BD211468
     Track not present in AccurateRip database
     Copy OK
Track  5
     Filename D:\Rips\05 - Moonlight Serenade.wav
     Pre-gap length  0:00:02.02
     Peak level 97.7 %
     Extraction speed 4.8 X
     Track quality 99.9 %
     Test CRC 7B5FA257
     Copy CRC 7B5FA257
     Track not present in AccurateRip database
     Copy OK
Track  6
     Filename D:\Rips\06 - I Love Paris.wav
     Pre-gap length  0:00:00.94
     Peak level 97.7 %
     Extraction speed 6.3 X
     Track quality 100.0 %
     Test CRC DBE37ACC
     Copy CRC DBE37ACC
     Track not present in AccurateRip database
     Copy OK
Track  7
     Filename D:\Rips\07 - My Way.wav
     Pre-gap length  0:00:01.20
     Peak level 97.7 %
     Extraction speed 7.2 X
     Track quality 100.0 %
     Test CRC F3EA818B
     Copy CRC F3EA818B
     Track not present in AccurateRip database
     Copy OK
Track  8
     Filename D:\Rips\08 - New York New York.wav
     Pre-gap length  0:00:02.18
     Peak level 97.7 %
     Extraction speed 5.2 X
     Track quality 99.9 %
     Test CRC B7C6B85B
     Copy CRC B7C6B85B
     Track not present in AccurateRip database
     Copy OK
Track  9
     Filename D:\Rips\09 - The Way You Look Tonight.wav
     Pre-gap length  0:00:01.72
     Peak level 97.7 %
     Extraction speed 7.4 X
     Track quality 100.0 %
     Test CRC 0069CB1F
     Copy CRC 0069CB1F
     Track not present in AccurateRip database
     Copy OK
Track 10
     Filename D:\Rips\10 - I've Got You Under My Skin.wav
     Peak level 97.7 %
     Extraction speed 7.8 X
     Track quality 100.0 %
     Test CRC F833667C
     Copy CRC F833667C
     Track not present in AccurateRip database
     Copy OK
Track 11
     Filename D:\Rips\11 - Witchcraft.wav
     Peak level 98.4 %
     Extraction speed 8.1 X
     Track quality 100.0 %
     Test CRC 6C50717A
     Copy CRC 6C50717A
     Track not present in AccurateRip database
     Copy OK
Track 12
     Filename D:\Rips\12 - All The Way (Version Acoustique).wav
     Pre-gap length  0:00:01.32
     Peak level 98.8 %
     Extraction speed 7.9 X
     Track quality 100.0 %
     Test CRC F0CF93B8
     Copy CRC F0CF93B8
     Track not present in AccurateRip database
     Copy OK
Track 13
     Filename D:\Rips\13 - I've Got You Under My Skin (Version Acoustique).wav
     Pre-gap length  0:00:01.52
     Peak level 96.0 %
     Extraction speed 8.8 X
     Track quality 100.0 %
     Test CRC 29555530
     Copy CRC 29555530
     Track not present in AccurateRip database
     Copy OK
None of the tracks are present in the AccurateRip database
No errors occurred
End of status report
---- CUETools DB Plugin V2.1.6
[CTDB TOCID: Bb8tbWiFIvOnvkIi2X97.DW68o0-] disk not present in database
Submit result: Bb8tbWiFIvOnvkIi2X97.DW68o0- has been uploaded
==== Log checksum F024C1DF8C7DD79A9D7316E3432F21918B6B4ED7B61B3E29E90EF956B395184E ====
 
 
Содержание индексной карты (.CUE)
REM GENRE Jazz
REM DATE 2016
REM DISCID B10D940D
REM COMMENT "ExactAudioCopy v1.3"
CATALOG 0602557276954
PERFORMER "Ben L'Oncle Soul"
TITLE "Under My Skin"
REM COMPOSER ""
FILE "01 - It Was A Very Good Year.wav" WAVE
  TRACK 01 AUDIO
    TITLE "It Was A Very Good Year"
    PERFORMER "Ben L'Oncle Soul"
    REM COMPOSER ""
    ISRC FRUM71601525
    INDEX 01 00:00:00
FILE "02 - All The Way.wav" WAVE
  TRACK 02 AUDIO
    TITLE "All The Way"
    PERFORMER "Ben L'Oncle Soul"
    REM COMPOSER ""
    ISRC FRUM71601526
    INDEX 01 00:00:00
  TRACK 03 AUDIO
    TITLE "Fly Me To The Moon"
    PERFORMER "Ben L'Oncle Soul"
    REM COMPOSER ""
    ISRC FRUM71601246
    INDEX 00 03:40:20
FILE "03 - Fly Me To The Moon.wav" WAVE
    INDEX 01 00:00:00
  TRACK 04 AUDIO
    TITLE "The Good Life"
    PERFORMER "Ben L'Oncle Soul"
    REM COMPOSER ""
    ISRC FRUM71601532
    INDEX 00 03:50:65
FILE "04 - The Good Life.wav" WAVE
    INDEX 01 00:00:00
  TRACK 05 AUDIO
    TITLE "Moonlight Serenade"
    PERFORMER "Ben L'Oncle Soul"
    REM COMPOSER ""
    ISRC FRUM71601534
    INDEX 00 04:11:01
FILE "05 - Moonlight Serenade.wav" WAVE
    INDEX 01 00:00:00
  TRACK 06 AUDIO
    TITLE "I Love Paris"
    PERFORMER "Ben L'Oncle Soul"
    REM COMPOSER ""
    ISRC FRUM71601528
    INDEX 00 05:25:05
FILE "06 - I Love Paris.wav" WAVE
    INDEX 01 00:00:00
  TRACK 07 AUDIO
    TITLE "My Way"
    PERFORMER "Ben L'Oncle Soul"
    REM COMPOSER ""
    ISRC FRUM71601529
    INDEX 00 03:26:50
FILE "07 - My Way.wav" WAVE
    INDEX 01 00:00:00
  TRACK 08 AUDIO
    TITLE "New York New York"
    PERFORMER "Ben L'Oncle Soul"
    REM COMPOSER ""
    ISRC FRUM71601530
    INDEX 00 06:08:37
FILE "08 - New York New York.wav" WAVE
    INDEX 01 00:00:00
  TRACK 09 AUDIO
    TITLE "The Way You Look Tonight"
    PERFORMER "Ben L'Oncle Soul"
    REM COMPOSER ""
    ISRC FRUM71601533
    INDEX 00 04:30:40
FILE "09 - The Way You Look Tonight.wav" WAVE
    INDEX 01 00:00:00
FILE "10 - I've Got You Under My Skin.wav" WAVE
  TRACK 10 AUDIO
    TITLE "I've Got You Under My Skin"
    PERFORMER "Ben L'Oncle Soul"
    REM COMPOSER ""
    ISRC FRUM71601527
    INDEX 01 00:00:00
FILE "11 - Witchcraft.wav" WAVE
  TRACK 11 AUDIO
    TITLE "Witchcraft"
    PERFORMER "Ben L'Oncle Soul"
    REM COMPOSER ""
    ISRC FRUM71601531
    INDEX 01 00:00:00
  TRACK 12 AUDIO
    TITLE "All The Way (Version Acoustique)"
    PERFORMER "Ben L'Oncle Soul"
    REM COMPOSER ""
    ISRC FRUM71602058
    INDEX 00 04:38:26
FILE "12 - All The Way (Version Acoustique).wav" WAVE
    INDEX 01 00:00:00
  TRACK 13 AUDIO
    TITLE "I've Got You Under My Skin (Version Acoustique)"
    PERFORMER "Ben L'Oncle Soul"
    REM COMPOSER ""
    ISRC FRUM71602059
    INDEX 00 03:07:41
FILE "13 - I've Got You Under My Skin (Version Acoustique).wav" WAVE
    INDEX 01 00:00:00
 
 
Об альбоме
French soul man Ben L’Oncle Soul unveils his third album, Under My Skin, a tribute to the legendary crooner Frank Sinatra that was released today via Blue Note France. Tapping into his own West Indian roots, Ben takes Ol’ Blue Eyes into another dimension where reggae, soul, blues, and jazz meet. As anyone who has heard his irrepressible version of The White Stripes’ “Seven Nation Army” knows, this is not the first time that Ben had explored another voice to develop his own. By looking at these songs through a modern, high-personalized lens, Ben was able to reinvent some of the great jazz classics popularized by Sinatra, collaborating with Matthieu Joly and Benjamin ‘Waxx’ Heikimian.
“I had to plunge into the lyrics, the words, and his singing,” says Ben. “Very few voices sound like his: it has a texture that sends shivers down your spine. Live, he was even better than in the studio! Total control… I grew up with Otis Redding and I can hear the years of work and the ups and the downs in Sinatra’s voice. All of that moves me. They’re not throwaway pop songs but an extremely polished repertoire, with melodies that remind me of soul music.”
Приватный:
Нет (DHT включён)
Размер:
396.48 Мб (415,738,058 байт) » файлов: 25
Участники:
0 раздают, 0 качают (0 участников всего)
Внешние участники:
2 раздают, 1 качают (3 участников всего) [ Обновить ]
For power users only: no seeders - write to support@pro-jazz.com. Для power user: нет сидеров - пишите на support@pro-jazz.com.
12:56
183
Нет комментариев. Ваш будет первым!