Поиск

2016 Amanda Martinez - Manana {2xHD} [24-48]

2016 Amanda Martinez - Manana {2xHD} [24-48]
Стили:
Издатель (лейбл):
Носитель:
WEB
Формат:
PCM
Тип рипа:
tracks
Контейнер:
FLAC (*.flac)
Количество каналов:
2.0
Разрядность/ЧД:
24/48
Битрейт аудио:
lossless
Время звучания:
00:50:13
Наличие сканов:
буклет pdf

01 - Va y viene 03:23
02 - Frozen 04:24
03 - Esperanza viva 04:00
04 - Nuevos caminos 04:28
05 - No hay distancia 04:27
06 - Manana 04:11
07 - Let's Dance 05:08
08 - Tenemos de todo 03:58
09 - Dias invisibles 04:11
10 - Ahora si te canto 04:15
11 - Le chemin 03:15
12 - Que bonita es esta vida 04:29

Состав:
  • Amanda Martinez: vocals
  • Drew Bristow: bass
  • Kevin Laliberté: guitar
  • Pablosky Rosales: tres, vocals
  • Osvaldo Rodriguez: violin, vocals
  • Alexander Brown: trumpet, vocals
  • Rosendo “Chendy” Leon: percussion, vocals
  • Javier Limón: vocals (2, 8), solo guitar (10)
  • Carlos Augusto Cardozo Filho: cavaquinho
Лог проверки качества
foobar2000 1.4.3 / Dynamic Range Meter 1.1.1
log date: 2021-07-19 22:26:16
--------------------------------------------------------------------------------
Analyzed: Amanda Martinez / Mañana
--------------------------------------------------------------------------------
DR         Peak         RMS     Duration Track
--------------------------------------------------------------------------------
DR8       -1.54 dB   -11.27 dB      3:24 01-Va y viene
DR9       -1.83 dB   -11.85 dB      4:25 02-Frozen
DR8       -1.91 dB   -11.26 dB      4:01 03-Esperanza viva
DR8       -1.63 dB   -11.68 dB      4:29 04-Nuevos caminos
DR9       -1.85 dB   -12.31 dB      4:28 05-No hay distancia
DR9       -1.64 dB   -13.17 dB      4:12 06-Manana
DR9       -2.04 dB   -13.53 dB      5:08 07-Let's Dance
DR8       -1.85 dB   -12.74 dB      3:58 08-Tenemos de todo
DR8       -1.94 dB   -12.42 dB      4:11 09-Dias invisibles
DR9       -1.85 dB   -13.67 dB      4:16 10-Ahora si te canto
DR10      -2.47 dB   -15.55 dB      3:16 11-Le chemin
DR8       -1.71 dB   -10.98 dB      4:30 12-Que bonita es esta vida
--------------------------------------------------------------------------------
Number of tracks:  12
Official DR value: DR9
Samplerate:        48000 Hz
Channels:          2
Bits per sample:   24
Bitrate:           1655 kbps
Codec:             FLAC
================================================================================
Приватный:
Нет (DHT включён)
Размер:
577.56 Мб (605,610,745 байт) » файлов: 18
Участники:
6 раздают, 0 качают (6 участников всего)
Внешние участники:
7 раздают, 2 качают (9 участников всего) [ Обновить ]
21:23
464
Нет комментариев. Ваш будет первым!