Поиск

2016-2018 Resina - Collection [2CD]

2016-2018 Resina - Collection [2CD]
Стили:
Номер по каталогу:
130701 FatCat Records
Носитель:
WEB
Тип рипа:
tracks+.cue
Аудиокодек:
FLAC (*.flac)
Битрейт аудио:
lossless
Время звучания:
01:25:19
Наличие сканов:
только обложка
Страна-производитель диска (релиза):
UK
Релизёр (источник):
redacted

 
[2016, D13-23] "Resina"

total length [00:38:32]

01. Tatry I [07:11]
02. Flock [04:19]
03. Tatry II [06:09]
04. Nightjar [03:48]
05. Dark Sky White Water [07:40]
06. Afterimage [02:17]
07. Not Here [07:10]

 
auCDtect
-----------------------
DON'T MODIFY THIS FILE
-----------------------
PERFORMER: auCDtect Task Manager, ver. 1.6.0 RC1 build 1.6.0.1
Copyright (c) 2008-2010 y-soft. All rights reserved
ANALYZER: auCDtect: CD records authenticity detector, version 0.8.2
Copyright (c) 2004 Oleg Berngardt. All rights reserved.
Copyright (c) 2004 Alexander Djourik. All rights reserved.
FILE: 07. Not Here.flac
  Size: 36079015 Hash: 9AD4A462F60716C81ED2B3F635626BB5 Accuracy: -m0
  Conclusion: CDDA 99%
  Signature: B2499AACF645EF054764323BF3E1CBE77F017774
FILE: 06. Afterimage.flac
  Size: 9130578 Hash: E311AABFCA4E5721618A883E8C84D242 Accuracy: -m0
  Conclusion: CDDA 100%
  Signature: 327B4DD22FC331F46BEAC301E611DF022CC3928B
FILE: 05. Dark Sky White Water.flac
  Size: 41221105 Hash: B16F867D857019DED6E9D16FE162E9FB Accuracy: -m0
  Conclusion: CDDA 100%
  Signature: 8C4C0D95605273BB5ADF0089A32008B8B13CAC10
FILE: 04. Nightjar.flac
  Size: 19496400 Hash: 21C05953A639882E899E8F0927DE8C52 Accuracy: -m0
  Conclusion: CDDA 100%
  Signature: 860B931E6BA2988E6242714E713FDF3C832ABDE6
FILE: 03. Tatry II.flac
  Size: 28936933 Hash: 172785FAC03A62B622CE3905DFE8A7F2 Accuracy: -m0
  Conclusion: CDDA 100%
  Signature: BE2514EBFFAB2D656847D84A92557EBADDF55042
FILE: 02. Flock.flac
  Size: 24095424 Hash: 141C100D97EB7367ECA82C52897357A3 Accuracy: -m0
  Conclusion: CDDA 100%
  Signature: 042CD7F931EEA79B1269E70A51FDFF4D0BE88833
FILE: 01. Tatry I.flac
  Size: 40681239 Hash: F06E9284ED1C9075573EB04FBC8A3341 Accuracy: -m0
  Conclusion: CDDA 99%
  Signature: E232C5C7E0C1036D18A569253A91A4C11D3EAFB9
 
dynamic range
foobar2000 1.3.9 / Dynamic Range Meter 1.1.1
log date: 2019-02-03 20:04:51
--------------------------------------------------------------------------------
Analyzed: Resina / Resina
--------------------------------------------------------------------------------
DR         Peak         RMS     Duration Track
--------------------------------------------------------------------------------
DR13      -1.38 dB   -19.81 dB      7:11 01-Tatry I
DR8       -0.49 dB   -12.59 dB      4:19 02-Flock
DR14     -12.14 dB   -30.69 dB      6:09 03-Tatry II
DR9       -0.49 dB   -11.77 dB      3:47 04-Nightjar
DR8       -0.50 dB   -13.24 dB      7:39 05-Dark Sky White Water
DR9      -11.36 dB   -25.21 dB      2:17 06-Afterimage
DR11      -0.50 dB   -14.51 dB      7:10 07-Not Here
--------------------------------------------------------------------------------
Number of tracks:  7
Official DR value: DR10
Samplerate:        44100 Hz
Channels:          2
Bits per sample:   16
Bitrate:           671 kbps
Codec:             FLAC
================================================================================
 
[2018, D13-28] "Traces"

total length [00:46:47]

01. In [05:32]
02. Procession [04:36]
03. Resin [04:23]
04. Surface [04:23]
05. Glimmer [03:45]
06. In In [06:48]
07. Trigger [04:47]
08. Leftover [08:12]
09. Lethe [04:25]

 
auCDtect
-----------------------
DON'T MODIFY THIS FILE
-----------------------
PERFORMER: auCDtect Task Manager, ver. 1.6.0 RC1 build 1.6.0.1
Copyright (c) 2008-2010 y-soft. All rights reserved
ANALYZER: auCDtect: CD records authenticity detector, version 0.8.2
Copyright (c) 2004 Oleg Berngardt. All rights reserved.
Copyright (c) 2004 Alexander Djourik. All rights reserved.
FILE: 09. Lethe.flac
  Size: 13330974 Hash: 6C60323F0BF1CE951EC88FE2A9D4C4CC Accuracy: -m0
  Conclusion: CDDA 100%
  Signature: 47FB0DA69E9270E01549636363D083E2F41BCED6
FILE: 08. Leftover.flac
  Size: 39377556 Hash: 4035AB2408BEB8DA732AD0636B32483C Accuracy: -m0
  Conclusion: CDDA 100%
  Signature: 64257D0DF587AB98266E5B0DE619DADB2F5592A3
FILE: 07. Trigger.flac
  Size: 25814989 Hash: FF25B451027C3504CB51A647F9E5A671 Accuracy: -m0
  Conclusion: CDDA 100%
  Signature: 338D2DE2ECCE659809B77E05F501347311FD500D
FILE: 06. In In.flac
  Size: 33526310 Hash: 68D3D45D9C3E98FC6C17F20B8E1DAF97 Accuracy: -m0
  Conclusion: CDDA 100%
  Signature: 17295274B88522E3B94EBFC493B829DD8647168D
FILE: 05. Glimmer.flac
  Size: 14581320 Hash: DB70179254806CCAB9B873B9953D110A Accuracy: -m0
  Conclusion: CDDA 100%
  Signature: D96AD923F51172ADBC95BD49761012F3CC7B7596
FILE: 04. Surface.flac
  Size: 18023571 Hash: EB6CB311F3BFFE0202799533E3FC25C3 Accuracy: -m0
  Conclusion: CDDA 100%
  Signature: 03A9BD49AC354B423C24D7B1D8C6F107588BE743
FILE: 03. Resin.flac
  Size: 26563737 Hash: E7A8762C6CA42052436D51DBEBC935F7 Accuracy: -m0
  Conclusion: CDDA 100%
  Signature: 6BF0B3A9BA9CC2082568A2D95DC3FBCE50A9CB62
FILE: 02. Procession.flac
  Size: 22797312 Hash: 86F91BBDB54889D625384EB5E7765EAD Accuracy: -m0
  Conclusion: CDDA 100%
  Signature: B6F609C7A343498AE74C4D3A2A032A1060512C38
FILE: 01. In.flac
  Size: 23413759 Hash: 1E1DF6D7C6A12A22A032F3B9FC2619CC Accuracy: -m0
  Conclusion: CDDA 100%
  Signature: AEFA348D307EF4F81F95A46F6DEFC50E669A6ADB
 
dynamic range
foobar2000 1.3.9 / Dynamic Range Meter 1.1.1
log date: 2019-02-03 20:05:35
--------------------------------------------------------------------------------
Analyzed: Resina / Traces
--------------------------------------------------------------------------------
DR         Peak         RMS     Duration Track
--------------------------------------------------------------------------------
DR12      -1.00 dB   -17.16 dB      5:31 01-In
DR8       -0.92 dB   -13.95 dB      4:35 02-Procession
DR5       -0.75 dB    -8.54 dB      4:23 03-Resin
DR10      -1.12 dB   -16.17 dB      4:23 04-Surface
DR13      -8.67 dB   -28.66 dB      3:45 05-Glimmer
DR5       -0.99 dB    -9.68 dB      6:48 06-In In
DR6       -0.97 dB   -10.93 dB      4:47 07-Trigger
DR7       -1.00 dB   -13.61 dB      8:11 08-Leftover
DR12      -5.53 dB   -22.67 dB      4:24 09-Lethe
--------------------------------------------------------------------------------
Number of tracks:  9
Official DR value: DR9
Samplerate:        44100 Hz
Channels:          2
Bits per sample:   16
Bitrate:           403 kbps
Codec:             FLAC
================================================================================
19:49
685
Нет комментариев. Ваш будет первым!