Вы используете незарегистрированную версию компонента "Вкладки"!

Поиск

2015 VA - Linn Records - The Super Audio Collection Vol. 8 {Linn} [24-192]

2015 VA - Linn Records - The Super Audio Collection Vol. 8 {Linn} [24-192]
Стили:
Издатель (лейбл):
Номер по каталогу:
AKP 537
Лог проверки качества
foobar2000 1.3.8 / Dynamic Range Meter 1.1.1
log date: 2015-08-24 16:28:12
--------------------------------------------------------------------------------
Analyzed: Ann Murray, Malcolm Martineau / Super Audio Collection Vol. 8 (1)
          BBC National Orchestra of Wales, Thomas Sondergard / Super Audio Collection Vol. 8 (2)
          Claire Martin, Gareth Williams / Super Audio Collection Vol. 8 (3)
          Gottlieb Wallisch / Super Audio Collection Vol. 8 (4)
          Joe Stilgoe / Super Audio Collection Vol. 8 (5)
          John Butt / Super Audio Collection Vol. 8 (6)
          Magnificat, Philip Cave / Super Audio Collection Vol. 8 (7)
          Phantasm / Super Audio Collection Vol. 8 (8)
          Scottish Chamber Orchestra Wind Soloists / Super Audio Collection Vol. 8 (9)
          Scottish Chamber Orchestra, Robin Ticciati / Super Audio Collection Vol. 8 (10)
          Scottish Ensemble, Jonathan Morton / Super Audio Collection Vol. 8 (11-12)
          The Big Screen / Super Audio Collection Vol. 8 (13)
--------------------------------------------------------------------------------
DR         Peak         RMS     Duration Track
--------------------------------------------------------------------------------
DR13      -2.64 dB   -21.76 dB      2:06 04-Mazurka, Op. 17: No. 2 in E Minor
DR13       0.00 dB   -18.14 dB      9:24 03-Symphony No. 2 in D Major, Op. 43: I. Allegretto
DR13      -1.47 dB   -17.60 dB      3:31 13-Goodbye For Now
DR13      -0.10 dB   -17.22 dB      2:24 02-Sonata No. 60 in C major, Hob. XVI/50: III. Allegro molto
DR8       -2.29 dB   -12.73 dB      4:15 01-Nothing’s Changed
DR10      -8.91 dB   -22.40 dB      1:22 07-The Well-Tempered Clavier Book I: Prelude No. 19 in A Major, BWV 864
DR11      -0.32 dB   -16.26 dB      6:28 08-Quemadmodum desiderat cervus
DR11      -4.76 dB   -20.86 dB      3:10 10-Fantasia 4 a4 (VDGS 24)
DR13      -1.62 dB   -19.17 dB      4:06 09-Divertimento No. 14 in B flat major, K. 270: I. Allegro molto
DR10      -0.04 dB   -15.08 dB      8:40 11-Symphony No. 2 in C Major, Op. 61: IV. Allegro molto vivace
DR13      -0.33 dB   -18.95 dB      1:38 05-Gedichte der Konigin Maria Stuart, Op. 135: Abschied von Frankreich
DR12      -4.94 dB   -22.19 dB      3:49 06-Serenade for strings, Op. 48: Valse. Moderato. Tempo di Valse
DR11      -2.28 dB   -16.65 dB      5:13 12-Hello Young Lovers
--------------------------------------------------------------------------------
Number of tracks:  13
Official DR value: DR12
Samplerate:        192000 Hz
Channels:          2
Bits per sample:   24
Bitrate:           4581 kbps
Codec:             FLAC
================================================================================
Any questions - support@pro-jazz.com. Есть вопросы - support@pro-jazz.com
00:24
316
Нет комментариев. Ваш будет первым!