Поиск

2015 VA - Jazz at Berlin Philharmonic IV - Accordion Night (Live) {ACT} [24-48]

2015 VA - Jazz at Berlin Philharmonic IV - Accordion Night (Live) {ACT} [24-48]
Дата записи диска:
13 февраля 2015
Место записи:
Berlin Philharmonie (KMS)
Издатель (лейбл):
Номер по каталогу:
ACT 9589-2
Носитель:
WEB
Формат:
PCM
Тип рипа:
tracks
Контейнер:
FLAC (*.flac)
Количество каналов:
2.0
Разрядность/ЧД:
24/48
Формат записи/Источник записи:
[TR24][OF]
Время звучания:
00:53:51
Наличие сканов:
буклет pdf
Наличие водяных знаков:
нет
Страна-производитель диска (релиза):
Germany
Релизёр (источник):
M0p94ok
Треклист:

01. Tango Loco (Live) - Klaus Paier, Asja Valcic  05:18
02. South Africa (Live) - Regis Gizavo, Nguyên Lê  06:54
03. Love (Live) - Regis Gizavo, Nguyên Lê  04:59
04. Horgalaten (Live) - Stian Carstensen  04:00
05. Oriental Hoedown (Live) - Stian Carstensen, Adam Baldych  06:37
06. Egyptian Fantasy (Live) - Vincent Peirani, Emile Parisien  04:12
07. Song of Medina - Casbah (Live) - Vincent Peirani, Emile Parisien  08:57
08. 3 Temps Pour Michel' P (Live) - Vincent Peirani, Emile Parisien  04:47
09. Libertango (Live) - Vincent Peirani, Klaus Paier, Stian Carstensen, Regis Gizavo, Emile Parisien, Asja Valcic, Nguyên Lê, Adam Baldych  08:04

Лог проверки качества
foobar2000 1.4.3 / Dynamic Range Meter 1.1.1
log date: 2020-03-20 16:21:30

--------------------------------------------------------------------------------
Analyzed: Klaus Paier & Asja Valcic / Jazz at Berlin Philharmonic IV: Accordion Night (Live) (1)
          Régis Gizavo & Nguyên Lê / Jazz at Berlin Philharmonic IV: Accordion Night (Live) (2-3)
          Stian Carstensen & Adam Baldych / Jazz at Berlin Philharmonic IV: Accordion Night (Live) (4)
          Stian Carstensen / Jazz at Berlin Philharmonic IV: Accordion Night (Live) (5)
          Vincent Peirani & Emile Parisien / Jazz at Berlin Philharmonic IV: Accordion Night (Live) (6-8)
          Vincent Peirani, Klaus Paier, Stian Carstensen, Régis Gizavo, Emile Parisien, Asja Valcic, Nguyên Lê & Adam Baldych / Jazz at Berlin Philharmonic IV: Accordion Night (Live) (9)
--------------------------------------------------------------------------------

DR         Peak         RMS     Duration Track
--------------------------------------------------------------------------------
DR11      -0.72 dB   -14.54 dB      5:19 01-Tango Loco (Live)
DR12      -0.72 dB   -15.47 dB      6:54 02-South Africa (Live)
DR11      -0.72 dB   -14.46 dB      4:59 03-Love (Live)
DR12      -0.72 dB   -15.86 dB      6:37 05-Oriental Hoedown (Live)
DR13      -0.72 dB   -17.60 dB      4:00 04-Horgalaten (Live)
DR12      -0.72 dB   -15.60 dB      4:12 06-Egyptian Fantasy (Live)
DR8       -0.58 dB   -11.89 dB      8:57 07-Song of Medina-Casbah (Live)
DR10      -0.72 dB   -13.96 dB      4:48 08-3 Temps Pour Michel' P (Live)
DR9       -0.72 dB   -12.51 dB      8:05 09-Libertango (Live)
--------------------------------------------------------------------------------

Number of tracks:  9
Official DR value: DR11

Samplerate:        48000 Hz
Channels:          2
Bits per sample:   24
Bitrate:           1679 kbps
Codec:             FLAC
================================================================================
Приватный:
Нет (DHT включён)
Размер:
626.05 Мб (656,464,248 байт) » файлов: 13
Участники:
2 раздают, 0 качают (2 участников всего)
Внешние участники:
--- [ Обновить ]
Скорость:
770.61 Кб/c 0/c
Есть вопросы - пишите личное сообщение пользователю M0p94ok.
16:37
24
Нет комментариев. Ваш будет первым!