Поиск

2015 Steve Kuhn Trio - Easy To Love {Venus} [DSD64 ISO]

2015 Steve Kuhn Trio - Easy To Love {Venus} [DSD64 ISO]
Стили:
Дата записи диска:
28 февраля - 29 февраля 2004
Место записи:
Avatar Studios, New York City, NY, USA
Издатель (лейбл):
Номер по каталогу:
VHGD-99
Носитель:
SACD
Формат:
DSD
Тип рипа:
image
Контейнер:
ISO (*.iso)
Количество каналов:
2.0
Разрядность/ЧД:
64 (2,8 MHz/1 Bit)
Битрейт аудио:
lossless
Время звучания:
01:05:40
Наличие сканов:
только обложка

01. Super Jet《 T. Dameron 》
02. Dear Old Stockholm《 Trad 》
03. Emily《 J. Mandel 》
04. Airegin《 S. Rollins 》
05. Morning Dew《 S. Kuhn 》
06. New Valley《D. Finck 》
07. Dream Dancing《 C. Porter 》
08. Two For The Road《 H. Mancini 》
09. Be My Love《 N. Brodsky 》
10. Easy To Love《 C. Porter 》

Состав:
  • Steve Kuhn — piano
  • David Finck — bass
  • Billy Drummond – drums
Лог проверки качества
foobar2000 1.6.7 / Dynamic Range Meter 1.1.1
log date: 2021-11-01 21:01:41
--------------------------------------------------------------------------------
Analyzed: STEVE KUHN TRIO / Easy To Love
--------------------------------------------------------------------------------
DR         Peak         RMS     Duration Track
--------------------------------------------------------------------------------
DR8       -4.37 dB   -13.78 dB      5:31 01-Super Jet
DR8       -4.60 dB   -14.94 dB      6:28 02-Dear Old Stockholm
DR8       -5.05 dB   -16.83 dB      7:16 03-Emily
DR8       -4.29 dB   -14.44 dB      4:44 04-Airegin
DR10      -5.37 dB   -18.97 dB      6:00 05-Morning Dew
DR7       -4.71 dB   -15.08 dB      6:51 06-New Valley
DR7       -4.37 dB   -13.81 dB      8:04 07-Dream Dancing
DR9       -4.94 dB   -16.98 dB      5:15 08-Two For The Road
DR8       -4.32 dB   -14.79 dB      9:17 09-Be My Love
DR9       -4.86 dB   -15.90 dB      6:11 10-Easy To Love
--------------------------------------------------------------------------------
Number of tracks:  10
Official DR value: DR8
Samplerate:        2822400 Hz / PCM Samplerate: 88200 Hz
Channels:          2
Bits per sample:   1
Bitrate:           5645 kbps
Codec:             DSD64
================================================================================
Приватный:
Нет (DHT включён)
Размер:
2.67 Гб (2,868,782,910 байт) » файлов: 5
Участники:
0 раздают, 2 качают (2 участников всего)
Внешние участники:
8 раздают, 2 качают (10 участников всего) [ Обновить ]
15:19
377
Нет комментариев. Ваш будет первым!