Поиск

2015 Jasser Haj Youssef (ft Piers Faccini & Vahid Taj) - Resonance: Viola D'amore {Théâtre de la Ville} [CD]

2015 Jasser Haj Youssef (ft Piers Faccini & Vahid Taj) - Resonance: Viola D'amore {Théâtre de la Ville} [CD]
Треклист:
01 Resonance
02 Layal
03 Lamento di tristano
04 Maqam Segah
05 Solo molo
06 Wait by the water (ft Piers Faccini)
07 How I weep (ft Piers Faccini)
08 Maqam
09 Speak heart (ft Piers Faccini & Vahid Taj)
Состав:
  • Jasser Haj YOUSSEF | viole d’amour
  • INVITÉS
  • Piers Faccini | chant, guitare
  • VAHID TAJ | chant

Молодому тунисскому скрипачу и композитору Ясиру Хадж Юсефу, восходящей звезде этно-джазовой сцены, подвластно немало эпох и жанров. Он засветился на нескольких престижных джазовых фестивалях, сразу заявив о себе как о самобытном исполнителе. О Ясире с равным почтением отзывались такие разноплановые корифеи музыкальной сцены, как Ибрагим Маалуф, братья Чемирани, Лакшминараяна Субраманиам, Юссу Н'Дур и недавно покинувший нас Дидье Локвуд. Ясир играет на классической скрипке и на виоле д’амур – струнном смычковом инструменте эпохи барокко и раннего классицизма, который обладает особым мягким тембром, напоминающим человеческий голос. Можно сказать, что Ясир Хадж Юсеф открыл новую главу на пути возрождения интереса к «виоле любви». Именно этот инструмент наравне с исполнителем стал главным героем альбома Resonance, записанного осенним парижским вечером в Театре де ла Вилль.

Доп. инфо:

Носитель: CD
Страна-производитель диска (релиза): France
Год издания: 2015
Издатель (лейбл): Jasser Haj Youssef / Théâtre de la Ville
Страна исполнителя (группы): Tunisia
Аудиокодек: FLAC (*.flac)
Тип рипа: tracks+.cue
Битрейт аудио: lossless
Продолжительность: 01:06:13
Наличие сканов в содержимом раздачи: да (front+back)

http://jasserhajyoussef.com/

Лог создания рипа
Exact Audio Copy V1.1 from 23. June 2015
EAC extraction logfile from 6. March 2016, 22:15
Jasser Haj Youssef / Viola D'amore Resonance
Used drive  : ATAPI   iHBS112   2   Adapter: 1  ID: 1
Read mode               : Secure
Utilize accurate stream : Yes
Defeat audio cache      : Yes
Make use of C2 pointers : No
Read offset correction                      : 6
Overread into Lead-In and Lead-Out          : No
Fill up missing offset samples with silence : Yes
Delete leading and trailing silent blocks   : No
Null samples used in CRC calculations       : Yes
Used interface                              : Native Win32 interface for Win NT & 2000
Gap handling                                : Appended to previous track
Used output format              : User Defined Encoder
Selected bitrate                : 768 kBit/s
Quality                         : High
Add ID3 tag                     : No
Command line compressor         : C:\Program Files\Exact Audio Copy\FLAC\FLAC.EXE
Additional command line options : -8 -V -T "ARTIST=%artist%" -T "TITLE=%title%" -T "ALBUM=%albumtitle%" -T "DATE=%year%" -T "TRACKNUMBER=%tracknr%" -T "GENRE=%genre%" -T "PERFORMER=%albuminterpret%" -T "COMPOSER=%composer%" -T "ALBUMARTIST=%albumartist%" -T "DISCNUMBER=%cdnumber%" -T "TOTALDISCS=%totalcds%" -T "TOTALTRACKS=%numtracks%" -T "COMMENT=EAC Secure Mode, Test & Copy, AccurateRip, FLAC -8" %source% -o %dest%
TOC of the extracted CD
     Track |   Start  |  Length  | Start sector | End sector
    ---------------------------------------------------------
        1  |  0:00.00 | 10:57.47 |         0    |    49321
        2  | 10:57.47 |  4:51.41 |     49322    |    71187
        3  | 15:49.13 |  3:08.27 |     71188    |    85314
        4  | 18:57.40 |  7:19.30 |     85315    |   118269
        5  | 26:16.70 |  5:56.20 |    118270    |   144989
        6  | 32:13.15 |  5:52.52 |    144990    |   171441
        7  | 38:05.67 |  4:52.57 |    171442    |   193398
        8  | 42:58.49 | 11:48.04 |    193399    |   246502
        9  | 54:46.53 | 11:26.08 |    246503    |   297960
Track  1
     Filename F:\DL\Jasser Haj Youssef - Viola D'amore Resonance (2015) [FLAC]\01 - Resonance.wav
     Pre-gap length  0:00:02.00
     Peak level 57.0 %
     Extraction speed 6.1 X
     Track quality 100.0 %
     Test CRC E0BAE195
     Copy CRC E0BAE195
     Track not present in AccurateRip database
     Copy OK
Track  2
     Filename F:\DL\Jasser Haj Youssef - Viola D'amore Resonance (2015) [FLAC]\02 - Layal.wav
     Peak level 74.6 %
     Extraction speed 6.6 X
     Track quality 100.0 %
     Test CRC A3DF2029
     Copy CRC A3DF2029
     Track not present in AccurateRip database
     Copy OK
Track  3
     Filename F:\DL\Jasser Haj Youssef - Viola D'amore Resonance (2015) [FLAC]\03 - Lamento Di Tristano.wav
     Peak level 60.1 %
     Extraction speed 6.6 X
     Track quality 100.0 %
     Test CRC 779EAC68
     Copy CRC 779EAC68
     Track not present in AccurateRip database
     Copy OK
Track  4
     Filename F:\DL\Jasser Haj Youssef - Viola D'amore Resonance (2015) [FLAC]\04 - Maqam Segah.wav
     Peak level 63.1 %
     Extraction speed 7.8 X
     Track quality 100.0 %
     Test CRC CE66775A
     Copy CRC CE66775A
     Track not present in AccurateRip database
     Copy OK
Track  5
     Filename F:\DL\Jasser Haj Youssef - Viola D'amore Resonance (2015) [FLAC]\05 - Solo Molo.wav
     Peak level 96.8 %
     Extraction speed 8.0 X
     Track quality 100.0 %
     Test CRC 4BF13F42
     Copy CRC 4BF13F42
     Track not present in AccurateRip database
     Copy OK
Track  6
     Filename F:\DL\Jasser Haj Youssef - Viola D'amore Resonance (2015) [FLAC]\06 - Wait By The Water.wav
     Peak level 80.1 %
     Extraction speed 8.0 X
     Track quality 100.0 %
     Test CRC 37E5909F
     Copy CRC 37E5909F
     Track not present in AccurateRip database
     Copy OK
Track  7
     Filename F:\DL\Jasser Haj Youssef - Viola D'amore Resonance (2015) [FLAC]\07 - How I Weep.wav
     Peak level 64.1 %
     Extraction speed 8.7 X
     Track quality 100.0 %
     Test CRC 440F7B2C
     Copy CRC 440F7B2C
     Track not present in AccurateRip database
     Copy OK
Track  8
     Filename F:\DL\Jasser Haj Youssef - Viola D'amore Resonance (2015) [FLAC]\08 - Maqam Hijaz.wav
     Peak level 68.2 %
     Extraction speed 9.7 X
     Track quality 100.0 %
     Test CRC 65E94779
     Copy CRC 65E94779
     Track not present in AccurateRip database
     Copy OK
Track  9
     Filename F:\DL\Jasser Haj Youssef - Viola D'amore Resonance (2015) [FLAC]\09 - Speak Heart.wav
     Peak level 83.6 %
     Extraction speed 10.3 X
     Track quality 100.0 %
     Test CRC 2A01C61F
     Copy CRC 2A01C61F
     Track not present in AccurateRip database
     Copy OK
None of the tracks are present in the AccurateRip database
No errors occurred
End of status report
---- CUETools DB Plugin V2.1.6
[CTDB TOCID: IttsG4QkIPyU6pBHSxqgWVhPu5g-] disk not present in database
Submit result: IttsG4QkIPyU6pBHSxqgWVhPu5g- has been uploaded
==== Log checksum B4972D92FF7FE71218AFE13352907267A20FB6880B9723EF33EACBC0632A6B59 ====
Содержание индексной карты (.CUE)
REM GENRE World
REM DATE 2015
REM DISCID 910F8409
PERFORMER "Jasser Haj Youssef"
TITLE "Viola D'amore Resonance"
FILE "01 - Resonance.flac" WAVE
  TRACK 01 AUDIO
    TITLE "Resonance"
    PERFORMER "Jasser Haj Youssef"
    INDEX 01 00:00:00
FILE "02 - Layal.flac" WAVE
  TRACK 02 AUDIO
    TITLE "Layal"
    PERFORMER "Jasser Haj Youssef"
    INDEX 01 00:00:00
FILE "03 - Lamento Di Tristano.flac" WAVE
  TRACK 03 AUDIO
    TITLE "Lamento Di Tristano"
    PERFORMER "Jasser Haj Youssef"
    INDEX 01 00:00:00
FILE "04 - Maqam Segah.flac" WAVE
  TRACK 04 AUDIO
    TITLE "Maqam Segah"
    PERFORMER "Jasser Haj Youssef"
    INDEX 01 00:00:00
FILE "05 - Solo Molo.flac" WAVE
  TRACK 05 AUDIO
    TITLE "Solo Molo"
    PERFORMER "Jasser Haj Youssef"
    INDEX 01 00:00:00
FILE "06 - Wait By The Water.flac" WAVE
  TRACK 06 AUDIO
    TITLE "Wait By The Water"
    PERFORMER "Jasser Haj Youssef"
    INDEX 01 00:00:00
FILE "07 - How I Weep.flac" WAVE
  TRACK 07 AUDIO
    TITLE "How I Weep"
    PERFORMER "Jasser Haj Youssef"
    INDEX 01 00:00:00
FILE "08 - Maqam Hijaz.flac" WAVE
  TRACK 08 AUDIO
    TITLE "Maqam Hijaz"
    PERFORMER "Jasser Haj Youssef"
    INDEX 01 00:00:00
FILE "09 - Speak Heart.flac" WAVE
  TRACK 09 AUDIO
    TITLE "Speak Heart"
    PERFORMER "Jasser Haj Youssef"
    INDEX 01 00:00:00
По всем вопросам пишите личное сообщение пользователю M0p94ok.
05:17
521
Нет комментариев. Ваш будет первым!