Вы используете незарегистрированную версию компонента "Вкладки"!

Поиск

2015 Håkon Kornstad - Live in Sarajevo {Jazzland} [24-88.2]

2015 Håkon Kornstad - Live in Sarajevo {Jazzland} [24-88.2]
Дата записи диска:
8 ноября 2014
Место записи:
18th Jazz Fest Sarajevo International Music Festival
Дата издания диска:
10 апреля 2015
Издатель (лейбл):
Номер по каталогу:
00602547374738
Носитель:
WEB
Формат:
PCM
Тип рипа:
tracks
Контейнер:
FLAC (*.flac)
Количество каналов:
2.0
Разрядность/ЧД:
24/88,2
Битрейт аудио:
lossless
Наличие сканов:
только обложка
Лог проверки качества
foobar2000 1.6.2 / Dynamic Range Meter 1.1.1
log date: 2021-11-11 09:52:48

--------------------------------------------------------------------------------
Analyzed: Håkon Kornstad / Live in Sarajevo
--------------------------------------------------------------------------------

DR         Peak         RMS     Duration Track
--------------------------------------------------------------------------------
DR14      -0.51 dB   -17.30 dB      7:57 01-Sweden
DR14      -0.51 dB   -18.03 dB      6:41 02-Pearlfisher
DR12      -2.37 dB   -20.55 dB      5:43 03-Whistler
DR16      -0.52 dB   -19.92 dB      3:56 04-Bånsull
DR15      -0.51 dB   -18.99 dB      4:18 05-Oslo
DR13      -0.51 dB   -18.02 dB      5:47 06-O Del Mio Dolce Ardor
DR13      -0.72 dB   -17.76 dB      5:35 07-Ideale
DR14      -0.51 dB   -18.45 dB      3:04 08-Ack Värmland Du Sköna
--------------------------------------------------------------------------------

Number of tracks:  8
Official DR value: DR14

Samplerate:        88200 Hz
Channels:          2
Bits per sample:   24
Bitrate:           2454 kbps
Codec:             FLAC
================================================================================
Any questions - support@pro-jazz.com. Есть вопросы - support@pro-jazz.com
11:00
50
11:01