Вы используете незарегистрированную версию компонента "Вкладки"!

Поиск

2015 Fourplay - Silver {Heads Up HUI-36688-02} [CD]

2015 Fourplay - Silver {Heads Up HUI-36688-02} [CD]
Стили:
Издатель (лейбл):
Номер по каталогу:
HUI-36688-02
Доп. инфо:

Страна-производитель диска (релиза): EU
Год издания: 2015
Страна исполнителя (группы): USA
Аудиокодек: FLAC (*.flac)
Тип рипа: image+.cue
Битрейт аудио: lossless
Продолжительность: 59'13''
Источник (релизер): RedHotBlues
Наличие сканов в содержимом раздачи: да

Лог создания рипа
Exact Audio Copy V1.1 from 23. June 2015
Отчёт EAC об извлечении, выполненном 30. сентября 2015, 14:56
Fourplay / Silver
Дисковод: ATAPI iHAS122 E Adapter: 1 ID: 1
Режим чтения : Достоверность
Использование точного потока : Да
Отключение кэша аудио : Да
Использование указателей C2 : Нет
Коррекция смещения при чтении : 6
Способность читать области Lead-in и Lead-out : Нет
Заполнение пропущенных сэмплов тишиной : Да
Удаление блоков с тишиной в начале и конце : Нет
При вычислениях CRC использовались нулевые сэмплы : Да
Интерфейс : Встроенный Win32-интерфейс для Win NT/2000
Выходной формат : Пользовательский кодировщик
Выбранный битрейт : 768 kBit/s
Качество : Высокий
Добавление ID3-тега : Нет
Утилита сжатия : C:\Exact Audio Copy\FLAC\FLAC.EXE
Дополнительные параметры : -6 -V -T "ARTIST=%artist%" -T "TITLE=%title%" -T "ALBUM=%albumtitle%" -T "DATE=%year%" -T "TRACKNUMBER=%tracknr%" -T "GENRE=%genre%" -T "COMMENT=%comment%" -T "BAND=%albuminterpret%" -T "ALBUMARTIST=%albuminterpret%" -T "COMPOSER=%composer%" %haslyrics%--tag-from-file=LYRICS="%lyricsfile%"%haslyrics% -T "DISCNUMBER=%cdnumber%" -T "TOTALDISCS=%totalcds%" -T "TOTALTRACKS=%numtracks%" %hascover%--picture="%coverfile%"%hascover% %source% -o %dest%
TOC извлечённого CD
Трек | Старт | Длительность | Начальный сектор | Конечный сектор
---------------------------------------------------------------------
1 | 0:00.00 | 6:45.38 | 0 | 30412
2 | 6:45.38 | 4:47.40 | 30413 | 51977
3 | 11:33.03 | 7:34.00 | 51978 | 86027
4 | 19:07.03 | 4:53.54 | 86028 | 108056
5 | 24:00.57 | 5:56.50 | 108057 | 134806
6 | 29:57.32 | 5:35.68 | 134807 | 159999
7 | 35:33.25 | 6:25.48 | 160000 | 188922
8 | 41:58.73 | 7:23.03 | 188923 | 222150
9 | 49:22.01 | 4:11.10 | 222151 | 240985
10 | 53:33.11 | 5:38.49 | 240986 | 266384
Характеристики диапазона извлечения и сообщения об ошибках
Выбранный диапазон
Имя файла C:\Users\Евгений\Desktop\Fourplay - Silver - 2015 - 59'13''\Fourplay - Silver.wav
Пиковый уровень 100.0 %
Скорость извлечения 8.8 X
Качество диапазона 100.0 %
CRC теста 0C1142E6
CRC копии 0C1142E6
Копирование... OK
Ошибок не произошло
Конец отчёта
---- CUETools DB Plugin V2.1.6
[CTDB TOCID: _dS_iXO_ie9OxN5inKPrPKWefQo-] found
Submit result: _dS_iXO_ie9OxN5inKPrPKWefQo- has been confirmed
Track | CTDB Status
1 | (25/25) Accurately ripped
2 | (25/25) Accurately ripped
3 | (25/25) Accurately ripped
4 | (25/25) Accurately ripped
5 | (25/25) Accurately ripped
6 | (25/25) Accurately ripped
7 | (25/25) Accurately ripped
8 | (25/25) Accurately ripped
9 | (25/25) Accurately ripped
10 | (25/25) Accurately ripped
==== Контрольная сумма отчёта B6DEEA749D2B19DB46FEBECFC80B21FFACA6AEBB468EDD81E70EB57C21CB3588 ====
Лог проверки качества
-----------------------
DON'T MODIFY THIS FILE
-----------------------
PERFORMER: auCDtect Task Manager, ver. 1.5.1RC4 build 1.5.1.5
Copyright (c) 2008-2010 y-soft. All rights reserved
http://y-soft.org
ANALYZER: auCDtect: CD records authenticity detector, version 0.8.2
Copyright (c) 2004 Oleg Berngardt. All rights reserved.
Copyright (c) 2004 Alexander Djourik. All rights reserved.
FILE: Fourplay - Silver.flac
Size: 395536820 Hash: A6D49FCB957355091655625E6B53B094 Accuracy: -m0
Conclusion: CDDA 99%
Signature: 89983D7B6F9341B8EEBFF6C9CF3E20A4DD6EADD2
Any questions - support@pro-jazz.com. Есть вопросы - support@pro-jazz.com
03:03
171
Нет комментариев. Ваш будет первым!