Вы используете незарегистрированную версию компонента "Вкладки"!

Поиск

2015 Fourplay - Silver {Heads Up HUI-36688-02} [24-96]

2015 Fourplay - Silver {Heads Up HUI-36688-02} [24-96]
Стили:
Издатель (лейбл):
Доп. инфо:

Формат записи/Источник записи: [TR24][OF]
Наличие водяных знаков: Нет
Год издания/переиздания диска: 2015
Издатель (лейбл): Heads Up International
Продолжительность: 00:59:12
Наличие сканов в содержимом раздачи: Буклет PDF

Контейнер: FLAC (*.flac)
Тип рипа: tracks
Разрядность: 24/96
Формат: PCM
Количество каналов: 2.0

Лог проверки качества
foobar2000 1.3.16 / Dynamic Range Meter 1.1.1
log date: 2017-08-30 21:35:27
--------------------------------------------------------------------------------
Analyzed: Fourplay / Silver
--------------------------------------------------------------------------------
DR         Peak         RMS     Duration Track
--------------------------------------------------------------------------------
DR5        0.00 dB    -7.17 dB      6:46 01-Quicksilver
DR7        0.00 dB    -9.36 dB      4:48 02-Horace
DR5        0.00 dB    -7.20 dB      7:34 03-Sterling
DR8        0.00 dB   -11.50 dB      4:54 04-A Silver Lining
DR4        0.00 dB    -6.20 dB      5:57 05-Silverado
DR6        0.00 dB    -8.11 dB      5:36 06-Mine
DR5        0.00 dB    -7.24 dB      6:26 07-Silver Streak
DR7        0.00 dB    -8.92 dB      7:23 08-Precious Metal
DR4        0.00 dB    -6.13 dB      4:11 09-Anniversario
DR7        0.00 dB    -9.49 dB      5:39 10-Windmill
--------------------------------------------------------------------------------
Number of tracks:  10
Official DR value: DR6
Samplerate:        96000 Hz
Channels:          2
Bits per sample:   24
Bitrate:           3208 kbps
Codec:             FLAC
================================================================================
Any questions - support@pro-jazz.com. Есть вопросы - support@pro-jazz.com
21:49
244
Нет комментариев. Ваш будет первым!