Поиск

2015 Enzo Pietropaoli - Solo {Fone} [DST64]

2015 Enzo Pietropaoli - Solo {Fone} [DST64]
Стили:
Издатель (лейбл):
Треклист:

01. Redemption Song
02. Nuevo
03. Bridge Over Troubled Water
04. Confuso Nel Vento
05. Pescatrici Di Perle
06. Ave Regina Caelorum
07. E Play
08. Just Like A Woman
09. Blu Allemande
10. Lithium
11. Nuages
12. Corrente
13. Father
14. Un Valzer Per Chi Resiste
15. I Love You
16. Emma E Antonio Dopo La Guerra

Доп. инфо:

Формат записи/Источник записи: [SACD-R][OF]
Наличие водяных знаков: Нет
Год издания/переиздания диска: 2015
Издатель (лейбл): Fonè Records
Продолжительность: 00:55:15
Наличие сканов в содержимом раздачи: Буклет PDF

Контейнер: ISO (*.iso)
Тип рипа: image
Разрядность: 64(2,8 MHz/1 Bit)
Формат: DST64
Количество каналов: 2.0

Источник (релизер): https://foneshop.it/en/super-audio-cd-out-of-stock/91-enzo-pietropaoli-solo.html

Лог проверки качества
foobar2000 1.4.8 / Замер динамического диапазона (DR) 1.1.1
Дата отчёта:  2019-12-25 18:30:20

--------------------------------------------------------------------------------
Анализ:   Enzo Pietropaoli / Solo
--------------------------------------------------------------------------------

DR         Пики         RMS           Продолжительность трека
--------------------------------------------------------------------------------
DR12      -8.21 дБ   -25.87 дБ      3:58 01-Redemption Song
DR12      -8.04 дБ   -25.96 дБ      2:57 02-Nuevo
DR13      -9.10 дБ   -26.84 дБ      3:51 03-Bridge Over Troubled Water
DR11      -7.61 дБ   -23.02 дБ      2:26 04-Confuso Nel Vento
DR12      -9.18 дБ   -25.81 дБ      3:55 05-Pescatrici Di Perle
DR15     -10.09 дБ   -31.10 дБ      4:12 06-Ave Regina Caelorum
DR12      -8.07 дБ   -24.97 дБ      4:48 07-E Play
DR14     -12.05 дБ   -30.59 дБ      2:33 08-Just Like A Woman
DR12      -7.89 дБ   -27.07 дБ      3:26 09-Blu Allemande
DR12      -7.34 дБ   -24.00 дБ      2:41 10-Lithium
DR12     -11.71 дБ   -27.94 дБ      2:24 11-Nuages
DR12      -7.01 дБ   -23.32 дБ      3:59 12-Corrente
DR12     -10.09 дБ   -30.23 дБ      3:06 13-Father
DR12     -11.54 дБ   -28.52 дБ      3:45 14-Un Valzer Per Chi Resiste
DR11     -10.00 дБ   -26.69 дБ      3:51 15-I Love You
DR13     -10.11 дБ   -29.48 дБ      3:23 16-Emma E Antonio Dopo La Guerra
--------------------------------------------------------------------------------

Количество треков: 16
Реальные значения DR: DR12

Частота:   2822400 Гц / Частота PCM: 88200 Гц
Каналов:   2
Разрядность:   1
Битрейт:   5645 кбит/с
Кодек:   DST64
================================================================================
По всем вопросам пишите личное сообщение пользователю M0p94ok.
19:50
544
Нет комментариев. Ваш будет первым!