Вы используете незарегистрированную версию компонента "Вкладки"!

Поиск

2015 Echoes Of Swing - Dancing {ACT Music} [24-96]

2015 Echoes Of Swing - Dancing {ACT Music} [24-96]
Стили:
Издатель (лейбл):
Доп. инфо:

Формат записи/Источник записи: [TR24][OF]
Наличие водяных знаков: Нет
Год издания/переиздания диска: 2015
Продолжительность: 61:44
Наличие сканов в содержимом раздачи: Буклет PDF

Контейнер: FLAC (*.flac)
Тип рипа: tracks
Разрядность: 24/96
Формат: PCM
Количество каналов: 2.0

Источник: highresaudio.com

Лог проверки качества
foobar2000 1.3.9 / Dynamic Range Meter 1.1.1
log date: 2019-12-31 07:19:42

--------------------------------------------------------------------------------
Analyzed: Echoes Of Swing / Dancing
--------------------------------------------------------------------------------

DR         Peak         RMS     Duration Track
--------------------------------------------------------------------------------
DR11      -0.30 dB   -12.97 dB      4:10 01-Hipsters Hop
DR11      -0.30 dB   -13.99 dB      3:01 02-Gavotte I, English Suite No. 6
DR12      -0.30 dB   -14.34 dB      3:42 03-Charleston
DR10      -0.48 dB   -13.84 dB      4:39 04-Dream Dancing
DR10      -0.30 dB   -11.93 dB      3:50 05-Diplomata
DR11      -0.32 dB   -13.69 dB      4:00 06-Lion's Steps
DR11      -0.33 dB   -14.51 dB      4:59 07-Ballet Of The Dunes
DR11      -0.45 dB   -13.78 dB      2:39 08-All You Want To Do Is Dance
DR12      -0.30 dB   -14.43 dB      3:04 09-Sandancer
DR12      -0.30 dB   -14.11 dB      3:37 10-Carioca
DR9       -0.30 dB   -12.58 dB      4:08 11-Premier Bal
DR11      -0.30 dB   -13.59 dB      4:05 12-Ragtime Dance
DR12      -0.59 dB   -16.25 dB      4:40 13-Moonlight Serenade
DR10      -0.30 dB   -12.32 dB      4:13 14-Salir A La Luz
DR10      -0.30 dB   -12.97 dB      3:10 15-Original Dixieland One Step
DR11      -0.30 dB   -13.84 dB      3:46 16-Dancing On The Ceiling
--------------------------------------------------------------------------------

Number of tracks:  16
Official DR value: DR11

Samplerate:        96000 Hz
Channels:          2
Bits per sample:   24
Bitrate:           2739 kbps
Codec:             FLAC
================================================================================
Any questions - support@pro-jazz.com. Есть вопросы - support@pro-jazz.com
20:04
217
Нет комментариев. Ваш будет первым!