Поиск

2015 Donna Lewis - Brand New Day {Palmetto} [CD]

2015 Donna Lewis - Brand New Day {Palmetto} [CD]
Место записи:
The Clubhouse Recording Studio, Rhinebeck, NY, USA
Дата издания диска:
10 марта 2015
Носитель:
CD
Тип рипа:
tracks
Битрейт аудио:
lossless
Время звучания:
00:51:20
Наличие сканов:
web
Страна-производитель диска (релиза):
USA
Релизёр (источник):
What.cd (djbaconfat)

Треклист:

01. Sleep (3:52)
02. Bring Me the Disco King (5:56)
03. Crazy (5:08)
04. Waters of March (3:04)
05. Brand New Day (3:31)
06. Everybodys Talkin' at Me (3:22)
07. Helpless (5:03)
08. Amie (4:57)
09. I Love You Always Forever (5:23)
10. Walk on By (4:31)
11. My Mom (6:34)

Лог создания рипа
X Lossless Decoder version 20141129 (148.1)

XLD extraction logfile from 2015-04-09 20:55:50 -0400

Donna Lewis / Brand New Day

Used drive : MATSHITA DVD-R   UJ-8A8 (revision HA13)
Media type : Pressed CD

Ripper mode             : XLD Secure Ripper
Disable audio cache     : OK for the drive with a cache less than 1375KiB
Make use of C2 pointers : NO
Read offset correction  : 102
Max retry count         : 100
Gap status              : Analyzed, Appended (except HTOA)

TOC of the extracted CD
     Track |   Start  |  Length  | Start sector | End sector
    ---------------------------------------------------------
        1  | 00:00:00 | 03:51:45 |         0    |    17369
        2  | 03:51:45 | 05:55:62 |     17370    |    44056
        3  | 09:47:32 | 05:08:21 |     44057    |    67177
        4  | 14:55:53 | 03:03:38 |     67178    |    80940
        5  | 17:59:16 | 03:30:59 |     80941    |    96749
        6  | 21:30:00 | 03:22:09 |     96750    |   111908
        7  | 24:52:09 | 05:03:21 |    111909    |   134654
        8  | 29:55:30 | 04:56:38 |    134655    |   156892
        9  | 34:51:68 | 05:23:21 |    156893    |   181138
       10  | 40:15:14 | 04:30:66 |    181139    |   201454
       11  | 44:46:05 | 06:33:53 |    201455    |   230982

AccurateRip Summary
    Disc not found in AccurateRip DB.

All Tracks
    Album gain               : -4.44 dB
    Peak                     : 0.979218
    Statistics
        Read error                           : 0
        Jitter error (maybe fixed)           : 0
        Retry sector count                   : 0
        Damaged sector count                 : 0

Track 01
    Filename : /Users/baconfat/Desktop/XLD rips/Donna Lewis - Brand New Day (2015) [FLAC]/01 Sleep.flac
    Pre-gap length : 00:02:00

    Track gain               : -4.07 dB
    Peak                     : 0.957428
    CRC32 hash (test run)    : A91AD74D
    CRC32 hash               : A91AD74D
    CRC32 hash (skip zero)   : EEF4B53A
    AccurateRip v1 signature : 97F84C43
    AccurateRip v2 signature : 83D2119D
        ->Track not present in AccurateRip database.
    Statistics
        Read error                           : 0
        Jitter error (maybe fixed)           : 0
        Retry sector count                   : 0
        Damaged sector count                 : 0

Track 02
    Filename : /Users/baconfat/Desktop/XLD rips/Donna Lewis - Brand New Day (2015) [FLAC]/02 Bring Me the Disco King.flac

    Track gain               : -5.42 dB
    Peak                     : 0.963898
    CRC32 hash (test run)    : 1C2B5200
    CRC32 hash               : 1C2B5200
    CRC32 hash (skip zero)   : A7B2D72C
    AccurateRip v1 signature : DBFEFF3D
    AccurateRip v2 signature : A4B0FDD8
        ->Track not present in AccurateRip database.
    Statistics
        Read error                           : 0
        Jitter error (maybe fixed)           : 0
        Retry sector count                   : 0
        Damaged sector count                 : 0

Track 03
    Filename : /Users/baconfat/Desktop/XLD rips/Donna Lewis - Brand New Day (2015) [FLAC]/03 Crazy.flac

    Track gain               : -2.99 dB
    Peak                     : 0.963409
    CRC32 hash (test run)    : 6ED6B29C
    CRC32 hash               : 6ED6B29C
    CRC32 hash (skip zero)   : 09B2C4DF
    AccurateRip v1 signature : 5E9444AE
    AccurateRip v2 signature : EE21B96D
        ->Track not present in AccurateRip database.
    Statistics
        Read error                           : 0
        Jitter error (maybe fixed)           : 0
        Retry sector count                   : 0
        Damaged sector count                 : 0

Track 04
    Filename : /Users/baconfat/Desktop/XLD rips/Donna Lewis - Brand New Day (2015) [FLAC]/04 Waters of March.flac

    Track gain               : -4.66 dB
    Peak                     : 0.975159
    CRC32 hash (test run)    : 8E166FDC
    CRC32 hash               : 8E166FDC
    CRC32 hash (skip zero)   : 635FEACB
    AccurateRip v1 signature : C430C138
    AccurateRip v2 signature : 76CC355C
        ->Track not present in AccurateRip database.
    Statistics
        Read error                           : 0
        Jitter error (maybe fixed)           : 0
        Retry sector count                   : 0
        Damaged sector count                 : 0

Track 05
    Filename : /Users/baconfat/Desktop/XLD rips/Donna Lewis - Brand New Day (2015) [FLAC]/05 Brand New Day.flac

    Track gain               : -4.00 dB
    Peak                     : 0.901794
    CRC32 hash (test run)    : 12CCB82D
    CRC32 hash               : 12CCB82D
    CRC32 hash (skip zero)   : EC23E70A
    AccurateRip v1 signature : 2AC4A117
    AccurateRip v2 signature : 97FD5C2E
        ->Track not present in AccurateRip database.
    Statistics
        Read error                           : 0
        Jitter error (maybe fixed)           : 0
        Retry sector count                   : 0
        Damaged sector count                 : 0

Track 06
    Filename : /Users/baconfat/Desktop/XLD rips/Donna Lewis - Brand New Day (2015) [FLAC]/06 Everybodys Talkin at Me.flac

    Track gain               : -3.51 dB
    Peak                     : 0.960022
    CRC32 hash (test run)    : B0A7C82B
    CRC32 hash               : B0A7C82B
    CRC32 hash (skip zero)   : 39FB1837
    AccurateRip v1 signature : E7621C80
    AccurateRip v2 signature : 2997B08D
        ->Track not present in AccurateRip database.
    Statistics
        Read error                           : 0
        Jitter error (maybe fixed)           : 0
        Retry sector count                   : 0
        Damaged sector count                 : 0

Track 07
    Filename : /Users/baconfat/Desktop/XLD rips/Donna Lewis - Brand New Day (2015) [FLAC]/07 Helpless.flac

    Track gain               : -3.54 dB
    Peak                     : 0.977325
    CRC32 hash (test run)    : 4CA43234
    CRC32 hash               : 4CA43234
    CRC32 hash (skip zero)   : 4D098A6B
    AccurateRip v1 signature : 59CEDBAA
    AccurateRip v2 signature : 45AA6FEB
        ->Track not present in AccurateRip database.
    Statistics
        Read error                           : 0
        Jitter error (maybe fixed)           : 0
        Retry sector count                   : 0
        Damaged sector count                 : 0

Track 08
    Filename : /Users/baconfat/Desktop/XLD rips/Donna Lewis - Brand New Day (2015) [FLAC]/08 Amie.flac

    Track gain               : -4.75 dB
    Peak                     : 0.970764
    CRC32 hash (test run)    : 08777282
    CRC32 hash               : 08777282
    CRC32 hash (skip zero)   : 0438F8DA
    AccurateRip v1 signature : E5387140
    AccurateRip v2 signature : 4C52C91E
        ->Track not present in AccurateRip database.
    Statistics
        Read error                           : 0
        Jitter error (maybe fixed)           : 0
        Retry sector count                   : 0
        Damaged sector count                 : 0

Track 09
    Filename : /Users/baconfat/Desktop/XLD rips/Donna Lewis - Brand New Day (2015) [FLAC]/09 I Love You Always Forever.flac

    Track gain               : -5.67 dB
    Peak                     : 0.979218
    CRC32 hash (test run)    : D3E0D5C2
    CRC32 hash               : D3E0D5C2
    CRC32 hash (skip zero)   : E26A9572
    AccurateRip v1 signature : 4F0D3C70
    AccurateRip v2 signature : A35E9EC8
        ->Track not present in AccurateRip database.
    Statistics
        Read error                           : 0
        Jitter error (maybe fixed)           : 0
        Retry sector count                   : 0
        Damaged sector count                 : 0

Track 10
    Filename : /Users/baconfat/Desktop/XLD rips/Donna Lewis - Brand New Day (2015) [FLAC]/10 Walk on By.flac

    Track gain               : -5.39 dB
    Peak                     : 0.955658
    CRC32 hash (test run)    : 34A7BC4D
    CRC32 hash               : 34A7BC4D
    CRC32 hash (skip zero)   : BCBD652D
    AccurateRip v1 signature : D2FC00CA
    AccurateRip v2 signature : 9F31722B
        ->Track not present in AccurateRip database.
    Statistics
        Read error                           : 0
        Jitter error (maybe fixed)           : 0
        Retry sector count                   : 0
        Damaged sector count                 : 0

Track 11
    Filename : /Users/baconfat/Desktop/XLD rips/Donna Lewis - Brand New Day (2015) [FLAC]/11 My Mom.flac

    Track gain               : -3.07 dB
    Peak                     : 0.960907
    CRC32 hash (test run)    : F4BF8A69
    CRC32 hash               : F4BF8A69
    CRC32 hash (skip zero)   : 175EA414
    AccurateRip v1 signature : 93D6EE5F
    AccurateRip v2 signature : 54C06481
        ->Track not present in AccurateRip database.
    Statistics
        Read error                           : 0
        Jitter error (maybe fixed)           : 0
        Retry sector count                   : 0
        Damaged sector count                 : 0

No errors occurred

End of status report

-----BEGIN XLD SIGNATURE-----
RVHrflDUkzU4HPwel71HRn8ljDuSe2MAfEMv8xzsX_FFFZpd3.SgNTvOuzl8kZoN209NAdcdv8rPZ_4vvCdfTybYuu0_B22ZSKZ49ZS
-----END XLD SIGNATURE-----
Содержание индексной карты (.CUE)
TITLE "Brand New Day"
PERFORMER "Donna Lewis"
REM GENRE "Pop"
REM DATE "2015"
REM DISCNUMBER 1
REM TOTALDISCS 1
REM DISCID AE0C070B
REM REPLAYGAIN_ALBUM_GAIN -4.44 dB
REM REPLAYGAIN_ALBUM_PEAK 0.979218
FILE "01 Sleep.flac" WAVE
  TRACK 01 AUDIO
    TITLE "Sleep"
    PERFORMER "Donna Lewis"
    ISRC USEPA1400001
    REM REPLAYGAIN_TRACK_GAIN -4.07 dB
    REM REPLAYGAIN_TRACK_PEAK 0.957428
    INDEX 01 00:00:00
FILE "02 Bring Me the Disco King.flac" WAVE
  TRACK 02 AUDIO
    TITLE "Bring Me the Disco King"
    PERFORMER "Donna Lewis"
    ISRC US29X1417155
    REM REPLAYGAIN_TRACK_GAIN -5.42 dB
    REM REPLAYGAIN_TRACK_PEAK 0.963898
    INDEX 01 00:00:00
FILE "03 Crazy.flac" WAVE
  TRACK 03 AUDIO
    TITLE "Crazy"
    PERFORMER "Donna Lewis"
    ISRC US29X1417156
    REM REPLAYGAIN_TRACK_GAIN -2.99 dB
    REM REPLAYGAIN_TRACK_PEAK 0.963409
    INDEX 01 00:00:00
FILE "04 Waters of March.flac" WAVE
  TRACK 04 AUDIO
    TITLE "Waters of March"
    PERFORMER "Donna Lewis"
    ISRC US29X1417157
    REM REPLAYGAIN_TRACK_GAIN -4.66 dB
    REM REPLAYGAIN_TRACK_PEAK 0.975159
    INDEX 01 00:00:00
FILE "05 Brand New Day.flac" WAVE
  TRACK 05 AUDIO
    TITLE "Brand New Day"
    PERFORMER "Donna Lewis"
    ISRC USEPA1400002
    REM REPLAYGAIN_TRACK_GAIN -4.00 dB
    REM REPLAYGAIN_TRACK_PEAK 0.901794
    INDEX 01 00:00:00
FILE "06 Everybodys Talkin' at Me.flac" WAVE
  TRACK 06 AUDIO
    TITLE "Everybodys Talkin' at Me"
    PERFORMER "Donna Lewis"
    ISRC US29X1417159
    REM REPLAYGAIN_TRACK_GAIN -3.51 dB
    REM REPLAYGAIN_TRACK_PEAK 0.960022
    INDEX 01 00:00:00
FILE "07 Helpless.flac" WAVE
  TRACK 07 AUDIO
    TITLE "Helpless"
    PERFORMER "Donna Lewis"
    ISRC US29X1417160
    REM REPLAYGAIN_TRACK_GAIN -3.54 dB
    REM REPLAYGAIN_TRACK_PEAK 0.977325
    INDEX 01 00:00:00
FILE "08 Amie.flac" WAVE
  TRACK 08 AUDIO
    TITLE "Amie"
    PERFORMER "Donna Lewis"
    ISRC US29X1417161
    REM REPLAYGAIN_TRACK_GAIN -4.75 dB
    REM REPLAYGAIN_TRACK_PEAK 0.970764
    INDEX 01 00:00:00
FILE "09 I Love You Always Forever.flac" WAVE
  TRACK 09 AUDIO
    TITLE "I Love You Always Forever"
    PERFORMER "Donna Lewis"
    ISRC USEPA1400003
    REM REPLAYGAIN_TRACK_GAIN -5.67 dB
    REM REPLAYGAIN_TRACK_PEAK 0.979218
    INDEX 01 00:00:00
FILE "10 Walk on By.flac" WAVE
  TRACK 10 AUDIO
    TITLE "Walk on By"
    PERFORMER "Donna Lewis"
    ISRC US29X1417163
    REM REPLAYGAIN_TRACK_GAIN -5.39 dB
    REM REPLAYGAIN_TRACK_PEAK 0.955658
    INDEX 01 00:00:00
FILE "11 My Mom.flac" WAVE
  TRACK 11 AUDIO
    TITLE "My Mom"
    PERFORMER "Donna Lewis"
    ISRC US29X1417164
    REM REPLAYGAIN_TRACK_GAIN -3.07 dB
    REM REPLAYGAIN_TRACK_PEAK 0.960907
    INDEX 01 00:00:00
Приватный:
Нет (DHT включён)
Размер:
275.65 Мб (289,036,495 байт) » файлов: 14
Участники:
0 раздают, 0 качают (0 участников всего)
Внешние участники:
--- [ Обновить ]
No seeders - write personal message to M0p94ok. Any questions - support@pro-jazz.com.
Нет сидеров - пишите в личку M0p94ok. Есть вопросы - support@pro-jazz.com
13:26
110
Нет комментариев. Ваш будет первым!