Поиск

2015 Dave Douglas Quintet - Brazen Heart {Greenleaf Music} [24-88.2]

2015 Dave Douglas Quintet - Brazen Heart {Greenleaf Music} [24-88.2]
Стили:
Дата записи диска:
3 февраля 2015
Место записи:
The Bunker Studios, Brooklyn, NY
Дата издания диска:
2 октября 2015
Издатель (лейбл):
Носитель:
WEB
Формат:
PCM
Тип рипа:
tracks
Контейнер:
FLAC (*.flac)
Количество каналов:
2.0
Разрядность/ЧД:
24/88,2
Битрейт аудио:
lossless
Время звучания:
01:05:00
Наличие сканов:
только обложка

01. Brazen Heart  07:23
02. Deep River  03:58
03. Hawaiian Punch  07:31
04. Inure Phase  05:38
05. Lone Wolf  02:55
06. Miracle Gro  08:16
07. Ocean Spray  05:23
08. Pyrrhic Apology  07:34
09. There is a Balm in Gilead  06:23
10. Variable Current  04:21
11. Wake Up Claire  05:33

Состав:
  • Dave Douglas — trumpet and compositions
  • Jon Irabagon — saxophones
  • Matt Mitchell — piano
  • Linda Oh — bass
  • Rudy Royston — drums

All compositions and arrangements by Dave Douglas (Dave Douglas Music / BMI) except “Deep River” (traditional) and “There Is A Balm in Gilead” (traditional).
Produced by Dave Douglas
Recording engineer: Aaron Nevezie
Assistant: Neal Shaw
Mixed and Mastered by Tyler McDiarmid of Geoff and Tyler Recording

Лог проверки качества
foobar2000 1.4.2 / Dynamic Range Meter 1.1.1
log date: 2022-01-25 15:12:44
--------------------------------------------------------------------------------
Analyzed: Dave Douglas Quintet / Brazen Heart (feat. Jon Irabagon, Matt Mitchell, Linda Oh & Rudy Royston)
--------------------------------------------------------------------------------
DR         Peak         RMS     Duration Track
--------------------------------------------------------------------------------
DR12      -0.61 dB   -14.37 dB      7:24 01-Brazen Heart
DR12      -0.61 dB   -16.05 dB      3:59 02-Deep River
DR12      -0.61 dB   -14.65 dB      7:32 03-Hawaiian Punch
DR11      -0.61 dB   -13.24 dB      5:38 04-Inure Phase
DR11      -0.61 dB   -13.16 dB      2:56 05-Lone Wolf
DR10      -0.61 dB   -13.67 dB      8:17 06-Miracle Gro
DR11      -0.61 dB   -13.18 dB      5:24 07-Ocean Spray
DR11      -0.61 dB   -14.31 dB      7:34 08-Pyrrhic Apology
DR13      -0.61 dB   -17.41 dB      6:23 09-There is a Balm in Gilead
DR12      -0.61 dB   -14.94 dB      4:22 10-Variable Current
DR11      -0.61 dB   -13.21 dB      5:33 11-Wake Up Claire
--------------------------------------------------------------------------------
Number of tracks:  11
Official DR value: DR11
Samplerate:        88200 Hz
Channels:          2
Bits per sample:   24
Bitrate:           2747 kbps
Codec:             FLAC
================================================================================
Скачивание доступно после регистрации!!
Приватный:
Нет (DHT включён)
Размер:
1.21 Гб (1,303,772,941 байт) » файлов: 12
Участники:
0 раздают, 0 качают (0 участников всего)
Внешние участники:
--- [ Обновить ]
18:03
397
Нет комментариев. Ваш будет первым!