Поиск

2015 Adam Rogers & David Binney - R&B {Criss Cross Jazz 1379 CD} [WEB]

2015 Adam Rogers & David Binney - R&B {Criss Cross Jazz 1379 CD} [WEB]
Дата записи диска:
18 февраля 2014
Место записи:
Systems Two Recording Studios, Brooklyn, NY, USA
Дата издания диска:
19 мая 2015
Издатель (лейбл):
Номер по каталогу:
1379 CD
Носитель:
WEB
Аудиокодек:
FLAC (*.flac)
Тип рипа:
tracks
Битрейт аудио:
lossless
Время звучания:
01:07:22
Наличие сканов:
нет
Релизёр (источник):
planar
Треклист:

1. Ah-Leu-Cha (Charlie Parker) 6:49
2. Introspection (Thelonious Monk) 7:38
3. In Love In Vain (Jerome Kern) 6:38
4. Africaine (Wayne Shorter) 7:08
5. Don't Misunderstand (Gordon Parks) 7:24
6. Sippin' At Bell's (Miles Davis) 9:05
7. Skydive (Freddie Hubbard) 7:25
8. My Ship (Kurt Weill / Ira Gershwin) 7:18
9. I Feel A Song Coming On (Jimmy McHugh) 7:55

 
DR
foobar2000 1.3.16 / Замер динамического диапазона (DR) 1.1.1
Дата отчёта:  2018-12-28 09:18:48
--------------------------------------------------------------------------------
Анализ:   Adam Rogers, David Binney, Reuben Rogers, & Gerald Cleaver / R&B / Rogers & Binney
--------------------------------------------------------------------------------
DR         Пики         RMS           Продолжительность трека
--------------------------------------------------------------------------------
DR11      -0.20 дБ   -13.56 дБ      6:50 01-Ah-Leu-Cha
DR12      -0.18 дБ   -14.05 дБ      7:38 02-Introspection
DR13      -0.20 дБ   -15.45 дБ      6:38 03-In Love in Vain
DR11      -0.20 дБ   -13.40 дБ      7:09 04-Africaine
DR13      -0.20 дБ   -16.76 дБ      7:24 05-Don't Misunderstand
DR11      -0.20 дБ   -13.82 дБ      9:05 06-Sippin' at Bell's
DR10      -0.19 дБ   -12.41 дБ      7:25 07-Skydive
DR12      -0.20 дБ   -16.06 дБ      7:18 08-My Ship
DR11      -0.20 дБ   -13.64 дБ      7:55 09-I Feel a Song Coming On
--------------------------------------------------------------------------------
Количество треков: 9
Реальные значения DR: DR12
Частота:   44100 Гц
Каналов:   2
Разрядность:   16
Битрейт:   913 кбит/с
Кодек:   FLAC
================================================================================
 
Лог проверки качества
-----------------------
DON'T MODIFY THIS FILE
-----------------------
PERFORMER: auCDtect Task Manager, ver. 1.6.0 RC1 build 1.6.0.1
Copyright (c) 2008-2010 y-soft. All rights reserved
http://y-soft.org
ANALYZER: auCDtect: CD records authenticity detector, version 0.8.2
Copyright (c) 2004 Oleg Berngardt. All rights reserved.
Copyright (c) 2004 Alexander Djourik. All rights reserved.
FILE: 9 I Feel a Song Coming On.flac
  Size: 54501714 Hash: CDACD15EEBFB625931DD28C7B9E04D50 Accuracy: -m0
  Conclusion: CDDA 100%
  Signature: 00282AEF2940633814DB6C183DEE291418FCDCE7
FILE: 8 My Ship.flac
  Size: 41993833 Hash: 184C5B54B08B1D54CA6A70A325C577D5 Accuracy: -m0
  Conclusion: CDDA 99%
  Signature: 17EDB22B833D22BEAD40AED25FE6811EAD11D5E4
FILE: 7 Skydive.flac
  Size: 51463077 Hash: F50AA8F37958CD80F0DAA38F6787DC9F Accuracy: -m0
  Conclusion: CDDA 100%
  Signature: 9CDF92EB0EAE1DF3B4051B998AF9E736EA3E8BB4
FILE: 6 Sippin- at Bell-s.flac
  Size: 59919617 Hash: 3088FB79B74CBA956A994D685B3D03BD Accuracy: -m0
  Conclusion: CDDA 100%
  Signature: BD9E243574FE75B4499B2EEF6C2AF3057C3D9C9F
FILE: 5 Don-t Misunderstand.flac
  Size: 40246449 Hash: 437BCD1F38A734A3E00A40451F8833C1 Accuracy: -m0
  Conclusion: CDDA 100%
  Signature: D31D1C870C706F71FA215B4DFAE015E8DFC89A9A
FILE: 4 Africaine.flac
  Size: 47776132 Hash: 4D306FDEEFF6D95474F1DD6A9E810C22 Accuracy: -m0
  Conclusion: CDDA 100%
  Signature: 03B2B3784C4EEEAE8979E47808DEFDB9C34997E4
FILE: 3 In Love in Vain.flac
  Size: 39981134 Hash: 27231A1283B626701E475F12D96D2B42 Accuracy: -m0
  Conclusion: CDDA 100%
  Signature: A8210855F260E5C39753F34F473FB68CA7066920
FILE: 2 Introspection.flac
  Size: 50333253 Hash: 6BFCFC104F1B53687E17570DF5C02C64 Accuracy: -m0
  Conclusion: CDDA 100%
  Signature: F1FC3BDDFBFE3F4D154D2598B2F3A6B92D7F62A4
FILE: 1 Ah-Leu-Cha.flac
  Size: 48117184 Hash: 368A34FA5B930F8CDA09956D0E08811C Accuracy: -m0
  Conclusion: CDDA 100%
  Signature: 1864232A553CA06401A16E692137B12E44D04ECE
Приватный:
Нет (DHT включён)
Размер:
414.64 Мб (434,781,846 байт) » файлов: 14
Участники:
0 раздают, 0 качают (0 участников всего)
Внешние участники:
2 раздают, 1 качают (3 участников всего) [ Обновить ]
Никого нет на раздаче - пишите личное сообщение M0p94ok
No seeders - write personal message to M0p94ok
14:58
66
Нет комментариев. Ваш будет первым!