Поиск

2014 VA - Starseekers (Nocturnal Elegance - Compiled By DJ Nartak)

2014 VA - Starseekers (Nocturnal Elegance - Compiled By DJ Nartak)
Стили:
Издатель (лейбл):
Треклист:
• Носитель: WEB
• Год издания: 2014
• Издатель Lemongrassmusic
• Номер по каталогу: LGM185
• Страна-производитель релиза: Germany
• Аудиокодек: FLAC (*.flac)
• Тип рипа: tracks
• Продолжительность: 01:18:49
• Источник (релизер):NTDMMANIAC ®
• WEB релиз: bandcamp
• Наличие сканов: front
Треклист:
◈ 01 - Mashti & Jean von Baden - Supernova (00:05:50)
◈ 02 - Of Norway - Yours Is a History of Violence (00:06:57)
◈ 03 - Dee C'rell - Distant Views (00:05:08)
◈ 04 - Circular - Top Dive (00:07:17)
◈ 05 - Ohm-g - Inner Change (00:05:07)
◈ 06 - Anemine - Oceano Mare (00:04:20)
◈ 07 - Lemongrass - Journal intime (00:05:43)
◈ 08 - Bob Holroyd - Light Water (00:05:04)
◈ 09 - Paulsen & Stryczek - Oryx (00:03:52)
◈ 10 - Good Natured Threat - Enough (00:04:43)
◈ 11 - Germind - Time Consciousness (00:06:48)
◈ 12 - Weathertunes - C'est l'espoir (00:04:44)
◈ 13 - Florent Campana - Velvet & Air (00:03:58)
◈ 14 - PNFA - Sylmar (00:05:08)
◈ 15 - Slow World - Saturday (00:03:00)
◈ 16 - Pete Alderton - The End of the Day (Outro) (00:01:02)
 
• Замер динамического диапазона •
foobar2000 1.2.5 / Замер динамического диапазона (DR) 1.1.1
Дата отчёта:  2018-02-18 20:30:54
--------------------------------------------------------------------------------
Анализ:   Anemine / Starseekers (Nocturnal Elegance - Compiled By DJ Nartak) (1)
          Bob Holroyd / Starseekers (Nocturnal Elegance - Compiled By DJ Nartak) (2)
          Circular / Starseekers (Nocturnal Elegance - Compiled By DJ Nartak) (3)
          Dee C'rell / Starseekers (Nocturnal Elegance - Compiled By DJ Nartak) (4)
          Florent Campana / Starseekers (Nocturnal Elegance - Compiled By DJ Nartak) (5)
          Germind / Starseekers (Nocturnal Elegance - Compiled By DJ Nartak) (6)
          Good Natured Threat / Starseekers (Nocturnal Elegance - Compiled By DJ Nartak) (7)
          Lemongrass / Starseekers (Nocturnal Elegance - Compiled By DJ Nartak) (8)
          Mashti & Jean von Baden / Starseekers (Nocturnal Elegance - Compiled By DJ Nartak) (9)
          Of Norway / Starseekers (Nocturnal Elegance - Compiled By DJ Nartak) (10)
          Ohm-g / Starseekers (Nocturnal Elegance - Compiled By DJ Nartak) (11)
          Paulsen & Stryczek / Starseekers (Nocturnal Elegance - Compiled By DJ Nartak) (12)
          Pete Alderton / Starseekers (Nocturnal Elegance - Compiled By DJ Nartak) (13)
          PNFA / Starseekers (Nocturnal Elegance - Compiled By DJ Nartak) (14)
          Slow World / Starseekers (Nocturnal Elegance - Compiled By DJ Nartak) (15)
          Weathertunes / Starseekers (Nocturnal Elegance - Compiled By DJ Nartak) (16)
--------------------------------------------------------------------------------
DR         Пики         RMS           Продолжительность трека
--------------------------------------------------------------------------------
DR10      -0.10 дБ   -12.52 дБ      4:20 06-Oceano Mare
DR8       -0.01 дБ   -11.46 дБ      5:04 08-Light Water
DR9        0.00 дБ   -10.47 дБ      7:17 04-Top Dive
DR8       -0.99 дБ   -11.09 дБ      5:09 03-Distant Views
DR8       -0.10 дБ   -10.41 дБ      3:58 13-Velvet & Air
DR7       -0.04 дБ    -8.49 дБ      6:48 11-Time Consciousness
DR9       -1.55 дБ   -11.99 дБ      4:44 10-Enough
DR7       -0.20 дБ   -10.57 дБ      5:44 07-Journal intime
DR11      -0.31 дБ   -14.39 дБ      5:51 01-Supernova
DR10      -0.01 дБ   -11.96 дБ      6:58 02-Yours Is a History of Violence
DR5       -0.10 дБ    -7.97 дБ      5:08 05-Inner Change
DR10      -0.10 дБ   -11.64 дБ      3:53 09-Oryx
DR11      -1.37 дБ   -16.28 дБ      1:03 16-The End of the Day (Outro)
DR8        0.00 дБ   -10.96 дБ      5:09 14-Sylmar
DR14      -0.10 дБ   -17.49 дБ      3:00 15-Saturday
DR5       -0.23 дБ    -6.69 дБ      4:44 12-C'est l'espoir
--------------------------------------------------------------------------------
Количество треков: 16
Реальные значения DR: DR9
Частота:  44100 Гц
Каналов:  2
Разрядность:   16
Битрейт:  920 кбит/с
Кодек:   FLAC
================================================================================
 
• Лог проверки качества •
-----------------------
DON'T MODIFY THIS FILE
-----------------------
PERFORMER: auCDtect Task Manager, ver. 1.6.0 RC1 build 1.6.0.1
Copyright (c) 2008-2010 y-soft. All rights reserved
http://y-soft.org
ANALYZER: auCDtect: CD records authenticity detector, version 0.8.2
Copyright (c) 2004 Oleg Berngardt. All rights reserved.
Copyright (c) 2004 Alexander Djourik. All rights reserved.
FILE: 16. Pete Alderton - The End of the Day (Outro).flac
  Size: 4884662 Hash: B5DB4CEAF26E8F03302CDE4D1B191617 Accuracy: -m0
  Conclusion: CDDA 100%
  Signature: D69F34471FF379C91EAF54C518C3740D4501E03C
FILE: 15. Slow World - Saturday.flac
  Size: 12994270 Hash: 600803A9A1FE0360B6923A22B490C9B1 Accuracy: -m0
  Conclusion: MPEG 89%
  Signature: B9438CAA9408A67B7872662F0A38B51AF0F94FB2
FILE: 14. PNFA - Sylmar.flac
  Size: 21630357 Hash: 7A3CFB478A3519B13F544D5632A61925 Accuracy: -m0
  Conclusion: CDDA 100%
  Signature: CF155168908325F1AE64A6B3EABAC1EFD0F1D535
FILE: 13. Florent Campana - Velvet & Air.flac
  Size: 24074937 Hash: 3BC287640057FDB8FF9A023B1E3914E7 Accuracy: -m0
  Conclusion: CDDA 99%
  Signature: 83771FCD295A9D912C2FB46F2292C76CBEDAD1AA
FILE: 12. Weathertunes - C'est l'espoir.flac
  Size: 32990917 Hash: 153EC7CFEB089DE10F0E1F61BFFC5C35 Accuracy: -m0
  Conclusion: CDDA 100%
  Signature: E4EF27D75A56E7462BF0E833C0543E0672A8586A
FILE: 11. Germind - Time Consciousness.flac
  Size: 41431208 Hash: EC4F6876C941B278661602F502CECBF1 Accuracy: -m0
  Conclusion: CDDA 54%
  Signature: F6CA47A64DBC10895F5669B0A9EB2F42416A7F19
FILE: 10. Good Natured Threat - Enough.flac
  Size: 26391361 Hash: 0311C0446173611AD8CBB5DEB7D9FF07 Accuracy: -m0
  Conclusion: CDDA 100%
  Signature: 82403230B9A9E77136154417B6305AF4198E42A8
FILE: 09. Paulsen & Stryczek - Oryx.flac
  Size: 26248080 Hash: E860A937F9BCBFEB9045FA5548945BFA Accuracy: -m0
  Conclusion: CDDA 100%
  Signature: E75F19A8D6A41272345FAE4350378A970FF8BCAB
FILE: 08. Bob Holroyd - Light Water.flac
  Size: 29177266 Hash: 761E0DB8ECB8400FD4D4F42620D7BC95 Accuracy: -m0
  Conclusion: CDDA 100%
  Signature: 91FC9F499DDB70BCBFC6955EC6D3F73C20276564
FILE: 07. Lemongrass - Journal intime.flac
  Size: 35812340 Hash: 90DFC832BC34DF9A0E7783B18C17785A Accuracy: -m0
  Conclusion: CDDA 100%
  Signature: D97C04A3BF23F2F67B2653165D5C8673A7C9302B
FILE: 06. Anemine - Oceano Mare.flac
  Size: 26896402 Hash: 98763858C692379618825C04611201B8 Accuracy: -m0
  Conclusion: CDDA 100%
  Signature: 5B66CB7E1D39E9EBC6DD82A32D976EDBC95A5B87
FILE: 05. Ohm-g - Inner Change.flac
  Size: 31513388 Hash: F3E78F63398B943DDF81F43F31D414C0 Accuracy: -m0
  Conclusion: CDDA 100%
  Signature: 97DDF381F63B6BD4203EFF9E8DB9F0E3A1513866
FILE: 04. Circular - Top Dive.flac
  Size: 40131940 Hash: C2D998684B05CDA3D377D9DC7FE3314C Accuracy: -m0
  Conclusion: CDDA 100%
  Signature: 3CF6D5F20D7C02DAD7A210E65D00C1322A059969
FILE: 03. Dee C'rell - Distant Views.flac
  Size: 36672892 Hash: C94B5D7A24B2D51134A884B22E429D2C Accuracy: -m0
  Conclusion: CDDA 100%
  Signature: 94666425A8B5E99558C58F1A033F0662C82E737D
FILE: 02. Of Norway - Yours Is a History of Violence.flac
  Size: 41660407 Hash: E2A858963E24DA89EE754B4618DF5E24 Accuracy: -m0
  Conclusion: CDDA 100%
  Signature: F786511AE7C44F1F2EA9AF038A8E60D1D99E63EE
FILE: 01. Mashti & Jean von Baden - Supernova.flac
  Size: 33395957 Hash: 0F40A97E992BD843F86C7BD63F47FA1F Accuracy: -m0
  Conclusion: CDDA 100%
  Signature: DABED61F051664EA14BD6174F39EF0BB3B6C0572
По всем вопросам пишите личное сообщение пользователю M0p94ok.
16:08
543
Нет комментариев. Ваш будет первым!